Тим Талер, или Проданный смех / Timm Thaler oder das verkaufte Lachen (2017) BDRip 720p | iTunes

 Статистика раздачи 
Размер: 3.56 ГБ   |  Зарегистрирован: 15 апр 2019, 09:40   |   .torrent скачан: 1052 раз
Сидеров: 459  [ 0 байт/сек ]     Личеров: 141  [ 0 байт/сек ]  
  
Аватара пользователя
Главный редактор
Главный редактор
 
Раздал: 65.88 ТБ
Скачал: 3.64 ТБ
Ратио: 18.520
Сообщения: 205716
Стаж: 8 лет 5 месяцев 27 дней
Откуда: Санкт-Петербург

Информация о фильме
Название: Тим Талер, или Проданный смех
Оригинальное название: Timm Thaler oder das verkaufte Lachen
Год выхода: 2017
Жанр: Фэнтези, драма, комедия, приключения, семейный
Режиссер: Андреас Дрезен
В ролях: Арвед Фризе, Юстус фон Донаньи, Аксель Праль, Андреас Шмидт, Жюль Херман, Чарли Хюбнер, Харальд Шмидт, Надя Уль, Фритци Хаберландт, Бьярне Медел

О фильме:
Мальчик по имени Тим Талер больше всего на свете любил смеяться, и смех у него был жутко заразительным. Однажды на скачках Тим знакомится со странным господином, который предлагает мальчику интересную сделку: Тим продаёт ему свой смех и теперь будет выигрывать любые пари.


Страна: Германия
Студия: Constantin Film, Rolize GmbH & Co., Zweites Deutsches Fernsehen
Продолжительность: 01:42:28
Перевод: Дублированный | iTunes

Файл
Кодек: H264
Качество: BDRip 720p
Видео: 4 594 kb/s, 1280x536, 24fps, high L4.1, yuv420p
Звук: AC3, 384kbps, 6ch, 48000Hz
Субтитры: Русские, английские

General
Unique ID : 178071034634603002277654712213204417334 (0x85F73BD9353A516B8705C9CD299CBB36)
Complete name : d:DownloadsТим Талер или проданный смех.2017.BDRip.720p.itunes.mkv
Format : Matroska
Format version : Version 4 / Version 2
File size : 3.56 GiB
Duration : 1 h 42 min
Overall bit rate : 4 979 kb/s
Encoded date : UTC 2019-04-15 06:27:19
Writing application : mkvmerge v8.3.0 ('Over the Horizon') 64bit
Writing library : libebml v1.3.1 + libmatroska v1.4.2

Video
ID : 1
Format : AVC
Format/Info : Advanced Video Codec
Format profile : High@L4.1
Format settings : CABAC / 5 Ref Frames
Format settings, CABAC : Yes
Format settings, ReFrames : 5 frames
Codec ID : V_MPEG4/ISO/AVC
Duration : 1 h 42 min
Bit rate : 4 594 kb/s
Width : 1 280 pixels
Height : 536 pixels
Display aspect ratio : 2.40:1
Frame rate mode : Constant
Frame rate : 24.000 FPS
Color space : YUV
Chroma subsampling : 4:2:0
Bit depth : 8 bits
Scan type : Progressive
Bits/(Pixel*Frame) : 0.279
Stream size : 3.29 GiB (92%)
Writing library : x264 core 152 r2851 ba24899
Encoding settings : cabac=1 / ref=5 / deblock=1:-2:-2 / analyse=0x3:0x113 / me=umh / subme=8 / psy=1 / psy_rd=1.00:0.00 / mixed_ref=1 / me_range=16 / chroma_me=1 / trellis=2 / 8x8dct=1 / cqm=0 / deadzone=21,11 / fast_pskip=1 / chroma_qp_offset=-2 / threads=12 / lookahead_threads=2 / sliced_threads=0 / nr=0 / decimate=1 / interlaced=0 / bluray_compat=0 / constrained_intra=0 / bframes=3 / b_pyramid=2 / b_adapt=2 / b_bias=0 / direct=3 / weightb=1 / open_gop=0 / weightp=2 / keyint=240 / keyint_min=24 / scenecut=40 / intra_refresh=0 / rc_lookahead=50 / rc=2pass / mbtree=1 / bitrate=4594 / ratetol=1.0 / qcomp=0.60 / qpmin=0 / qpmax=69 / qpstep=4 / cplxblur=20.0 / qblur=0.5 / ip_ratio=1.40 / aq=1:1.00
Default : Yes
Forced : No

Audio
ID : 2
Format : AC-3
Format/Info : Audio Coding 3
Codec ID : A_AC3
Duration : 1 h 42 min
Bit rate mode : Constant
Bit rate : 384 kb/s
Channel(s) : 6 channels
Channel positions : Front: L C R, Side: L R, LFE
Sampling rate : 48.0 kHz
Frame rate : 31.250 FPS (1536 SPF)
Bit depth : 16 bits
Compression mode : Lossy
Stream size : 281 MiB (8%)
Title : Дублированный | iTunes
Language : Russian
Service kind : Complete Main
Default : Yes
Forced : No

Text #1
ID : 3
Format : UTF-8
Codec ID : S_TEXT/UTF8
Codec ID/Info : UTF-8 Plain Text
Duration : 1 h 41 min
Bit rate : 96 b/s
Count of elements : 1220
Stream size : 71.7 KiB (0%)
Language : Russian
Default : Yes
Forced : No

Text #2
ID : 4
Format : UTF-8
Codec ID : S_TEXT/UTF8
Codec ID/Info : UTF-8 Plain Text
Duration : 1 h 41 min
Bit rate : 52 b/s
Count of elements : 1221
Stream size : 39.0 KiB (0%)
Language : English
Default : No
Forced : No

Menu
00:00:00.000 : en:00:00:00.000
00:03:51.250 : en:00:03:51.250
00:08:39.458 : en:00:08:39.458
00:13:12.708 : en:00:13:12.708
00:17:29.625 : en:00:17:29.625
00:22:08.458 : en:00:22:08.458
00:28:09.250 : en:00:28:09.250
00:33:06.042 : en:00:33:06.042
00:38:36.792 : en:00:38:36.792
00:44:47.625 : en:00:44:47.625
00:52:13.125 : en:00:52:13.125
00:57:46.667 : en:00:57:46.667
01:04:50.625 : en:01:04:50.625
01:08:37.833 : en:01:08:37.833
01:13:37.625 : en:01:13:37.625
01:17:57.542 : en:01:17:57.542
01:23:56.500 : en:01:23:56.500
01:28:43.917 : en:01:28:43.917
01:33:45.083 : en:01:33:45.083
01:36:39.958 : en:01:36:39.958
Не забывайте говорить Спасибо. Не уходите с раздачи!   
Торрент: Зарегистрирован [15 апр 2019, 09:40] Для скачивания .torrent
необходима регистрация
Или скачать с помощью
MediaGet
Статус:
Проверен
 
.torrent скачан: 1052 раз
Хэш: 87633bd248c6e2ac264ca6a7a2c3c5ff5a306a53
Размер: 3.56 ГБ (3 826 246 475 байт)
   Стать Автором раздачи
   
Цитата
  • Похожие торренты
    Ответы
    Просмотры
    Последнее сообщение

Вернуться в Зарубежное кино (HD Video)

Кто сейчас на конференции

Сейчас эту тему просматривают: нет зарегистрированных пользователей и гости: 1