Предложение / The Proposal (2009) BDRip 720p от k.e.n & MegaPeer | D, A

 Статистика раздачи 
Размер: 4.37 ГБ   |  Зарегистрирован: 15 апр 2019, 08:33   |   .torrent скачан: 107 раз
Сидеров: 36  [ 0 байт/сек ]     Личеров: 11  [ 0 байт/сек ]  
  
Аватара пользователя
Главный редактор
Главный редактор
 
Раздал: 65.88 ТБ
Скачал: 3.64 ТБ
Ратио: 18.520
Сообщения: 205716
Стаж: 8 лет 5 месяцев 27 дней
Откуда: Санкт-Петербург

Информация о фильме
Название: Предложение
Оригинальное название: The Proposal
Год выхода: 2009
Жанр: комедия, драма
Режиссер: Энн Флетчер
В ролях: Сандра Буллок, Райан Рейнольдс, Мэри Стинберген, Крэйг Т. Нельсон, Бетти Уайт, Дэнис О’Хэр, Малин Акерман, Оскар Нунез, Аасиф Мандви, Майкл Нури

О фильме:
Стервозная главная редакторша (Буллок) вынуждает своего подчиненного, обладателя американского паспорта (Рейнолдс), срочно выйти за нее замуж, чтобы не быть депортированной в Канаду. Последний использует подвернувшуюся возможность отомстить за все перенесенные унижения. Парочке предстоит увлекательное свадебное путешествие на Аляску к родителям жениха, чтобы доказать иммиграционной службе чистоту сделки.


Страна: США
Студия: Touchstone Pictures, Mandeville Films, K/O Paper Products
Продолжительность: 01:47:47
Перевод: Дублированный, авторский (одноголосый, закадровый)

Файл
Кодек: H.264
Качество: BDRip 720p
Видео: AVC, 1280x534, 23.976 fps, 4527 kb/s
Аудио #1: AC3, 48 kHz, 6 ch, 448 kb/s (Russian) - DUB
Аудио #2: AC3, 48 kHz, 6 ch, 384 kb/s (Russian) - AVO, Ю.Немахов
Аудио #3: AC3, 48 kHz, 6 ch, 448 kb/s (English) - Original
Субтитры: Russian, English

Релиз от: &

x264 [info]: frame I:1501 Avg QP:15.36 size:154077 PSNR Mean Y:47.33 U:49.55 V:50.27 Avg:47.98 Global:47.63
x264 [info]: frame P:31688 Avg QP:18.02 size: 47174 PSNR Mean Y:45.19 U:48.66 V:49.79 Avg:46.05 Global:45.50
x264 [info]: frame B:121875 Avg QP:19.61 size: 15837 PSNR Mean Y:44.16 U:47.49 V:48.95 Avg:45.05 Global:44.53
Полное имя : D:ФИЛЬМЫПредложение.2009 (Р.Рейнолдс, С.Буллок).mkv
Формат : Matroska
Версия формата : Version 2
Размер файла : 4,37 Гбайт
Продолжительность : 1 ч. 47 м.
Общий поток : 5805 Кбит/сек
Дата кодирования : UTC 2019-04-15 05:23:46
Программа кодирования : mkvmerge v5.3.0 ('I could have danced') built on Feb 9 2012 10:38:07
Библиотека кодирования : libebml v1.2.3 + libmatroska v1.3.0
Обложка : Yes
Attachments : cover (2).jpg

Видео
Идентификатор : 1
Формат : AVC
Формат/Информация : Advanced Video Codec
Профиль формата : High@L4.1
Параметр CABAC формата : Да
Параметр ReFrames формата : 12 кадров
Идентификатор кодека : V_MPEG4/ISO/AVC
Продолжительность : 1 ч. 47 м.
Битрейт : 4527 Кбит/сек
Ширина : 1280 пикселей
Высота : 534 пикселя
Соотношение сторон : 2,40:1
Режим частоты кадров : Постоянный
Частота кадров : 23,976 (24000/1001) кадра/сек
Цветовое пространство : YUV
Субдискретизация насыщенности : 4:2:0
Битовая глубина : 8 бит
Тип развёртки : Прогрессивная
Бит/(Пиксели*Кадры) : 0.276
Размер потока : 3,32 Гбайт (76%)
Библиотека кодирования : x264 core 146 r2538 121396c
Настройки программы : cabac=1 / ref=12 / deblock=1:-3:-3 / analyse=0x3:0x133 / me=umh / subme=11 / psy=1 / psy_rd=1.00:0.10 / mixed_ref=1 / me_range=32 / chroma_me=1 / trellis=2 / 8x8dct=1 / cqm=0 / deadzone=21,11 / fast_pskip=0 / chroma_qp_offset=-3 / threads=12 / lookahead_threads=2 / sliced_threads=0 / nr=0 / decimate=0 / interlaced=0 / bluray_compat=0 / constrained_intra=0 / bframes=12 / b_pyramid=2 / b_adapt=2 / b_bias=0 / direct=3 / weightb=1 / open_gop=0 / weightp=2 / keyint=240 / keyint_min=23 / scenecut=40 / intra_refresh=0 / rc_lookahead=40 / rc=2pass / mbtree=0 / bitrate=4527 / ratetol=1.0 / qcomp=0.60 / qpmin=0 / qpmax=69 / qpstep=4 / cplxblur=20.0 / qblur=0.5 / vbv_maxrate=50000 / vbv_bufsize=62500 / nal_hrd=none / filler=0 / ip_ratio=1.40 / pb_ratio=1.30 / aq=3:0.70
Язык : English
Default : Да
Forced : Нет
Цветовой диапазон : Limited
Основные цвета : BT.709
Характеристики трансфера : BT.709
Коэффициенты матрицы : BT.709

Аудио #1
Идентификатор : 2
Формат : AC-3
Формат/Информация : Audio Coding 3
Расширение режима : CM (complete main)
Параметр Endianness формата : Big
Идентификатор кодека : A_AC3
Продолжительность : 1 ч. 47 м.
Вид битрейта : Постоянный
Битрейт : 448 Кбит/сек
Каналы : 6 каналов
Расположение каналов : Front: L C R, Side: L R, LFE
Частота : 48,0 КГц
Частота кадров : 31,250 кадров/сек (1536 spf)
Битовая глубина : 16 бит
Метод сжатия : С потерями
Размер потока : 345 Мбайт (8%)
Заголовок : Дублированный
Язык : Russian
Default : Да
Forced : Нет

Аудио #2
Идентификатор : 3
Формат : AC-3
Формат/Информация : Audio Coding 3
Расширение режима : CM (complete main)
Параметр Endianness формата : Big
Идентификатор кодека : A_AC3
Продолжительность : 1 ч. 47 м.
Вид битрейта : Постоянный
Битрейт : 384 Кбит/сек
Каналы : 6 каналов
Расположение каналов : Front: L C R, Side: L R, LFE
Частота : 48,0 КГц
Частота кадров : 31,250 кадров/сек (1536 spf)
Битовая глубина : 16 бит
Метод сжатия : С потерями
Размер потока : 296 Мбайт (7%)
Заголовок : Авторский Ю.Немахов
Язык : Russian
Default : Нет
Forced : Нет

Аудио #3
Идентификатор : 4
Формат : AC-3
Формат/Информация : Audio Coding 3
Расширение режима : CM (complete main)
Параметр Endianness формата : Big
Идентификатор кодека : A_AC3
Продолжительность : 1 ч. 47 м.
Вид битрейта : Постоянный
Битрейт : 448 Кбит/сек
Каналы : 6 каналов
Расположение каналов : Front: L C R, Side: L R, LFE
Частота : 48,0 КГц
Частота кадров : 31,250 кадров/сек (1536 spf)
Битовая глубина : 16 бит
Метод сжатия : С потерями
Размер потока : 345 Мбайт (8%)
Заголовок : Оригинал
Язык : English
Default : Нет
Forced : Нет

Текст #1
Идентификатор : 5
Формат : UTF-8
Идентификатор кодека : S_TEXT/UTF8
Идентификатор кодека/Информация : UTF-8 Plain Text
Заголовок : forced
Язык : Russian
Default : Да
Forced : Нет

Текст #2
Идентификатор : 6
Формат : UTF-8
Идентификатор кодека : S_TEXT/UTF8
Идентификатор кодека/Информация : UTF-8 Plain Text
Язык : Russian
Default : Нет
Forced : Нет

Текст #3
Идентификатор : 7
Формат : UTF-8
Идентификатор кодека : S_TEXT/UTF8
Идентификатор кодека/Информация : UTF-8 Plain Text
Язык : English
Default : Нет
Forced : Нет

Меню
00:00:00.000 : en:Margaret, Andrew And Bob
00:08:55.535 : en:The Problem And The Solution
00:19:23.871 : en:A Promotion And A Proposal
00:29:32.103 : en:Telling The Family
00:37:17.401 : en:The Babymaker
00:47:06.615 : en:Grace's Big Surprise
00:56:31.137 : en:Singing Each Other To Sleep
01:06:25.898 : en:Getting Low With Mother Nature
01:17:55.170 : en:Water Rescue
01:25:32.418 : en:The Wedding
01:37:40.980 : en:I'll Take That As A Yes
01:43:02.426 : en:End Credits
Не забывайте говорить Спасибо. Не уходите с раздачи!   
Торрент: Зарегистрирован [15 апр 2019, 08:33] Для скачивания .torrent
необходима регистрация
Или скачать с помощью
MediaGet
Статус:
Проверен
 
.torrent скачан: 107 раз
Хэш: 8da354285fbb9467bfbffb417caf4aa30f7f0471
Размер: 4.37 ГБ (4 693 188 678 байт)
   Стать Автором раздачи
   
Цитата
  • Похожие торренты
    Ответы
    Просмотры
    Последнее сообщение

Вернуться в Зарубежное кино (HD Video)

Кто сейчас на конференции

Сейчас эту тему просматривают: нет зарегистрированных пользователей и гости: 1