Мы умираем молодыми / We Die Young (2019) BDRip 720p от ExKinoRay | HDRezka Studio

 Статистика раздачи 
Размер: 4.88 ГБ   |  Зарегистрирован: 15 апр 2019, 08:13   |   .torrent скачан: 303 раз
Сидеров: 47  [ 0 байт/сек ]     Личеров: 12  [ 0 байт/сек ]  
  
Аватара пользователя
Главный редактор
Главный редактор
 
Раздал: 78.18 ТБ
Скачал: 3.73 ТБ
Ратио: 21.403
Сообщения: 209757
Стаж: 8 лет 7 месяцев 22 дня
Откуда: Санкт-Петербург

Название: Мы умираем молодыми
Оригинальное название: We Die Young
Год выпуска: 2019
Жанр: Драма
Режиссер: Лайор Геллер
В ролях: Жан-Клод Ван Дамм, Дэвид Кастанеда, Элиас Гарза, Николас Шон Джонни, Чарли МакГечан, Джоана Метрасс, Дин Джон-Уилсон, Джим Цезарь, Керри Беннетт, Уриель Эмиль

Описание: 14-летний Лукас, принадлежащий миру вашингтонской преступности, хочет, чтобы его 10-летнего брата обошла эта участь. Такой шанс выпадает, когда они знакомятся со своим новым соседом, ветераном войны в Афганистане.



Выпущено: Болгария, США, Dream Team Films
Продолжительность: 01:32:42
Перевод: Профессиональный (многоголосый, закадровый) | HDRezka Studio
Субтитры: Английские
БЕЗ КАКОЙ-ЛИБО РЕКЛАМЫ!

Формат: MKV
Качество: BDRip 720p
Видео: MPEG-4 AVC, 1280x538 (2.40:1), 23.976 fps, 6453 Kbps
Аудио 1: 48 kHz, AC3, 5.1, 448 Kbps | MVO | RUS |
Аудио 2: 48 kHz, AC3, 5.1, 640 Kbps | Оригинал | ENG |

Дорожка получена методом замены участков с английской речью в центральном канале оригинала, на аналогичные с микшированной в моно дорожки HDrezka Studio. Работа со звуком potroks.

General
Unique ID : 207539160061846435511344894598779286161 (0x9C22969ACD9AFDD39A750DD72DACB291)
Complete name : F:ishodniki2018hdrezkaWe.Die.Young.2019.MVO.BDRip.720p.ExKinoRay.mkv
Format : Matroska
Format version : Version 2
File size : 4.88 GiB
Duration : 1 h 32 min
Overall bit rate : 7 534 kb/s
Movie name : We Die Young 2019 from ExKinoRay
Encoded date : UTC 2019-04-15 04:03:32
Writing application : mkvmerge v5.6.0 ('Kenya Kane') built on May 27 2012 16:44:04
Writing library : libebml v1.2.3 + libmatroska v1.3.0

Video
ID : 1
Format : AVC
Format/Info : Advanced Video Codec
Format profile : High@L4.1
Format settings, CABAC : Yes
Format settings, ReFrames : 12 frames
Codec ID : V_MPEG4/ISO/AVC
Duration : 1 h 32 min
Bit rate : 6 453 kb/s
Width : 1 280 pixels
Height : 538 pixels
Display aspect ratio : 2.40:1
Frame rate mode : Constant
Frame rate : 23.976 (24000/1001) FPS
Color space : YUV
Chroma subsampling : 4:2:0
Bit depth : 8 bits
Scan type : Progressive
Bits/(Pixel*Frame) : 0.391
Stream size : 4.08 GiB (84%)
Title : Enigma
Writing library : x264 core 148 r2638 7599210
Encoding settings : cabac=1 / ref=12 / deblock=1:-2:-2 / analyse=0x3:0x113 / me=umh / subme=11 / psy=1 / psy_rd=1.00:0.05 / mixed_ref=1 / me_range=32 / chroma_me=1 / trellis=2 / 8x8dct=1 / cqm=0 / deadzone=21,11 / fast_pskip=0 / chroma_qp_offset=-3 / threads=12 / lookahead_threads=3 / sliced_threads=0 / nr=0 / decimate=1 / interlaced=0 / bluray_compat=0 / constrained_intra=0 / bframes=10 / b_pyramid=2 / b_adapt=2 / b_bias=0 / direct=3 / weightb=1 / open_gop=0 / weightp=2 / keyint=240 / keyint_min=23 / scenecut=40 / intra_refresh=0 / rc_lookahead=40 / rc=2pass / mbtree=0 / bitrate=6453 / ratetol=1.0 / qcomp=0.65 / qpmin=0 / qpmax=51 / qpstep=4 / cplxblur=20.0 / qblur=0.5 / vbv_maxrate=50000 / vbv_bufsize=62500 / nal_hrd=none / filler=0 / ip_ratio=1.30 / pb_ratio=1.32 / aq=2:0.90
Default : Yes
Forced : No
Color range : Limited
Color primaries : BT.709
Transfer characteristics : BT.709
Matrix coefficients : BT.709

Audio #1
ID : 2
Format : AC-3
Format/Info : Audio Coding 3
Mode extension : CM (complete main)
Format settings, Endianness : Big
Codec ID : A_AC3
Duration : 1 h 32 min
Bit rate mode : Constant
Bit rate : 448 kb/s
Channel(s) : 6 channels
Channel positions : Front: L C R, Side: L R, LFE
Sampling rate : 48.0 kHz
Frame rate : 31.250 FPS (1536 spf)
Compression mode : Lossy
Stream size : 297 MiB (6%)
Title : MVO (HDRezka Studio)
Language : Russian
Default : Yes
Forced : No

Audio #2
ID : 3
Format : AC-3
Format/Info : Audio Coding 3
Mode extension : CM (complete main)
Format settings, Endianness : Big
Codec ID : A_AC3
Duration : 1 h 32 min
Bit rate mode : Constant
Bit rate : 640 kb/s
Channel(s) : 6 channels
Channel positions : Front: L C R, Side: L R, LFE
Sampling rate : 48.0 kHz
Frame rate : 31.250 FPS (1536 spf)
Compression mode : Lossy
Stream size : 424 MiB (8%)
Title : Original
Language : English
Default : No
Forced : No

Text
ID : 4
Format : UTF-8
Codec ID : S_TEXT/UTF8
Codec ID/Info : UTF-8 Plain Text
Title : Full
Language : English
Default : No
Forced : No

Menu
00:00:00.000 : en:Chapter 01
00:06:11.579 : en:Chapter 02
00:10:40.431 : en:Chapter 03
00:17:55.032 : en:Chapter 04
00:25:43.041 : en:Chapter 05
00:30:47.220 : en:Chapter 06
00:34:20.516 : en:Chapter 07
00:38:05.574 : en:Chapter 08
00:44:33.420 : en:Chapter 09
00:51:34.382 : en:Chapter 10
00:57:07.006 : en:Chapter 11
01:06:24.647 : en:Chapter 12
01:12:21.295 : en:Chapter 13
01:13:55.514 : en:Chapter 14
01:21:17.455 : en:Chapter 15
01:26:33.813 : en:Chapter 16



Релиз от:

Автор релиза:
Не забывайте говорить Спасибо. Не уходите с раздачи!   
Торрент: Зарегистрирован [15 апр 2019, 08:13]
Статус:
Проверен
 
.torrent скачан: 303 раз
Хэш: 30f6cecec11f425747139eeeb2325e1beff31ab2
Размер: 4.88 ГБ (5 238 642 142 байт)
   Стать Автором раздачи
   
Цитата

Вернуться в Зарубежное кино (HD Video)

Кто сейчас на конференции

Сейчас эту тему просматривают: нет зарегистрированных пользователей и гости: 1