Голодные Z / Les affames (2017) BDRip 1080p от селезень | iTunes

 Статистика раздачи 
Размер: 8.39 ГБ   |  Зарегистрирован: 15 апр 2019, 13:18   |   .torrent скачан: 334 раз
Сидеров: 163  [ 0 байт/сек ]     Личеров: 121  [ 0 байт/сек ]  
  
Аватара пользователя
Главный редактор
Главный редактор
 
Раздал: 78.18 ТБ
Скачал: 3.73 ТБ
Ратио: 21.403
Сообщения: 209757
Стаж: 8 лет 7 месяцев 22 дня
Откуда: Санкт-Петербург

Информация о фильме
Название: Голодные Z
Оригинальное название: Les affamés
Год выхода: 2017
Жанр: Ужасы, фантастика, драма
Режиссер: Робин Обер
В ролях: Марк-Андре Гронден, Монья Шокри, Мишлен Ланкто, Мари-Джинетт Гуай, Бриджитт Пупар, Эдуар Трамбле-Гренье, Люк Пру, Дидье Люсьен, Робер Бруйетт



О фильме: В небольшой деревушке неподалеку от Квебека все изменилось. Местные жители уже не те, что раньше: их тела разлагаются, а сами они стали интересоваться исключительно свежей плотью.

Страна: Канада
Студия: La Maison de Prod, Christal Films Distribution, Téléfilm Canada
Продолжительность: 01:43:00
Перевод: Дублированный | iTunes

Качество: BDRip 1080p
Видео: MPEG-4 AVC, 1800x1080, 10.3 Mbit/s, 24 fps
Звук:
Аудио #01: 48 kHz, AC3, 5.1, 384 Kbps | iTunes | RUS |
Аудио #02: 48 kHz, AC3, 5.1, 384 Kbps | iTunes | UKR |
Аудио #03: 48 kHz, AC3, 5.1, 640 Kbps | Оригинал | FRE |



General
Unique ID : 179383902701933367214681720161461345370 (0x86F4153DE161F57A3D34860E9E181C5A)
Complete name : D:Video111Les.Affamés.2017.BDRip.1080p.seleZen.mkv
Format : Matroska
Format version : Version 4
File size : 8.39 GiB
Duration : 1 h 43 min
Overall bit rate : 11.7 Mb/s
Movie name : Les Affamés 2017 from селезень
Encoded date : UTC 2019-04-15 09:56:40
Writing application : mkvmerge v32.0.0 ('Astral Progressions') 64-bit
Writing library : libebml v1.3.7 + libmatroska v1.5.0

Video
ID : 1
Format : AVC
Format/Info : Advanced Video Codec
Format profile : High@L4.1
Format settings : CABAC / 4 Ref Frames
Format settings, CABAC : Yes
Format settings, ReFrames : 4 frames
Codec ID : V_MPEG4/ISO/AVC
Duration : 1 h 43 min
Bit rate : 10.3 Mb/s
Width : 1 800 pixels
Height : 1 080 pixels
Display aspect ratio : 5:3
Frame rate mode : Constant
Frame rate : 24.000 FPS
Color space : YUV
Chroma subsampling : 4:2:0
Bit depth : 8 bits
Scan type : Progressive
Bits/(Pixel*Frame) : 0.220
Stream size : 7.37 GiB (88%)
Title : seleZen
Writing library : x264 core 157 r2935 545de2f
Encoding settings : cabac=1 / ref=4 / deblock=1:-3:-3 / analyse=0x3:0x133 / me=umh / subme=11 / psy=1 / psy_rd=1.08:0.09 / mixed_ref=1 / me_range=32 / chroma_me=1 / trellis=2 / 8x8dct=1 / cqm=0 / deadzone=21,11 / fast_pskip=0 / chroma_qp_offset=-3 / threads=12 / lookahead_threads=2 / sliced_threads=0 / nr=0 / decimate=0 / interlaced=0 / bluray_compat=0 / constrained_intra=0 / bframes=8 / b_pyramid=2 / b_adapt=2 / b_bias=0 / direct=3 / weightb=1 / open_gop=0 / weightp=2 / keyint=230 / keyint_min=23 / scenecut=40 / intra_refresh=0 / rc_lookahead=40 / rc=2pass / mbtree=0 / bitrate=10250 / ratetol=1.0 / qcomp=0.60 / qpmin=0 / qpmax=51 / qpstep=4 / cplxblur=20.0 / qblur=0.5 / vbv_maxrate=50000 / vbv_bufsize=62000 / nal_hrd=none / filler=0 / ip_ratio=1.40 / pb_ratio=1.30 / aq=2:1.00
Language : French
Default : Yes
Forced : No

Audio #1
ID : 2
Format : AC-3
Format/Info : Audio Coding 3
Commercial name : Dolby Digital
Codec ID : A_AC3
Duration : 1 h 42 min
Bit rate mode : Constant
Bit rate : 384 kb/s
Channel(s) : 6 channels
Channel layout : L R C LFE Ls Rs
Sampling rate : 48.0 kHz
Frame rate : 31.250 FPS (1536 SPF)
Bit depth : 16 bits
Compression mode : Lossy
Stream size : 283 MiB (3%)
Title : iTunes
Language : Russian
Service kind : Complete Main
Default : Yes
Forced : Yes

Audio #2
ID : 3
Format : AC-3
Format/Info : Audio Coding 3
Commercial name : Dolby Digital
Codec ID : A_AC3
Duration : 1 h 42 min
Bit rate mode : Constant
Bit rate : 384 kb/s
Channel(s) : 6 channels
Channel layout : L R C LFE Ls Rs
Sampling rate : 48.0 kHz
Frame rate : 31.250 FPS (1536 SPF)
Bit depth : 16 bits
Compression mode : Lossy
Stream size : 283 MiB (3%)
Title : iTunes
Language : Ukrainian
Service kind : Complete Main
Default : No
Forced : No

Audio #3
ID : 4
Format : AC-3
Format/Info : Audio Coding 3
Commercial name : Dolby Digital
Codec ID : A_AC3
Duration : 1 h 43 min
Bit rate mode : Constant
Bit rate : 640 kb/s
Channel(s) : 6 channels
Channel layout : L R C LFE Ls Rs
Sampling rate : 48.0 kHz
Frame rate : 31.250 FPS (1536 SPF)
Bit depth : 16 bits
Compression mode : Lossy
Stream size : 471 MiB (5%)
Title : Original
Language : French
Service kind : Complete Main
Default : No
Forced : No

Menu
00:00:00.000 : :Chapter 1
00:05:44.177 : :Chapter 2
00:12:07.769 : :Chapter 3
00:18:28.274 : :Chapter 4
00:25:54.887 : :Chapter 5
00:32:11.847 : :Chapter 6
00:38:50.328 : :Chapter 7
00:45:21.010 : :Chapter 8
00:51:00.516 : :Chapter 9
00:57:40.290 : :Chapter 10
01:04:43.797 : :Chapter 11
01:10:38.025 : :Chapter 12
01:17:53.419 : :Chapter 13
01:23:36.553 : :Chapter 14
01:32:00.807 : :Chapter 15
01:37:08.906 : :Chapter 16


Релиз от:

Не забывайте говорить Спасибо. Не уходите с раздачи!   
Торрент: Зарегистрирован [15 апр 2019, 13:18]
Статус:
Проверен
 
.torrent скачан: 334 раз
Хэш: bfce568760cd979c2ea2c98b654d524dba299ad0
Размер: 8.39 ГБ (9 006 246 057 байт)
   Стать Автором раздачи
   
Цитата
  • Похожие торренты
    Ответы
    Просмотры
    Последнее сообщение

Вернуться в Зарубежное кино (HD Video)

Кто сейчас на конференции

Сейчас эту тему просматривают: нет зарегистрированных пользователей и гости: 1