Хроники Риддика / The Chronicles of Riddick (2004) HDTV 1080р | D | Open Matte

 Статистика раздачи 
Размер: 4.63 ГБ   |  Зарегистрирован: 15 апр 2019, 09:28   |   .torrent скачан: 439 раз
Сидеров: 906  [ 0 байт/сек ]     Личеров: 638  [ 0 байт/сек ]  
  
Аватара пользователя
Главный редактор
Главный редактор
 
Раздал: 78.18 ТБ
Скачал: 3.73 ТБ
Ратио: 21.403
Сообщения: 209757
Стаж: 8 лет 7 месяцев 22 дня
Откуда: Санкт-Петербург

Информация о фильме
Название: Хроники Риддика
Оригинальное название: The Chronicles of Riddick
Год выхода: 2004
Жанр: Фантастика, приключения
Режиссер: Дэвид Туи
В ролях: Вин Дизель, Колм Фиор, Тэнди Ньютон, Джуди Денч, Карл Урбан, Алекса Давалос, Лайнас Роуч, Йорик ван Вагенинген, Ник Чинланд, Кит Дэвид

О фильме:
«Хроники Риддика» ("The Cronicles of Riddick") — продолжение картины «Кромешная тьма» ("Pitch Black"), одного из самых нашумевших фильмов в жанре dark space opera. Культовый Вин Дизель в очках и с неизменной лысиной продолжает повествовать замечательную биографию космического маньяка по имени Риддик, который должен непременно спаси Вселенную.
XXVI век. Риддик, галактический антигерой, вечный преступник со своим оригинальным взглядом на жизнь, вновь бежит из космической колонии, чтобы оказаться на планете Гелион, где сокрыта тайна его происхождения. Поминутно сталкиваясь с охотниками за головами и прочей внеземной опасностью, Риддик в компании с новыми друзьями противостоит жестокому Лорду Маршалу, предводителю Нового Крестового похода против всего живого и мертвого во Вселенной.



Страна: США
Студия: Universal Pictures, Radar Pictures, One Race Productions, Primal Foe Productions
Продолжительность: 01:52:46
Перевод: Дубляж [Мосфильм-Мастер]
Субтитры: Русские

Файл
Кодек: H.264
Качество: HDTV 1080р | Open Matte
Видео: 1916x1080 (16:9), 5120 kbps, 23.976 fps
Аудио #1: AC3, 6 ch, ~448 kbps - | Русский | -
Аудио #2: AC3, 6 ch, ~384 kbps - | Английский | -
Формат субтитров: softsub (SRT)

***Релиз от: -=DoMiNo=-

General
Unique ID : 226685139767022045372233544289449878637 (0xAA89F848E881FD1A3F50C71C496B246D)
Complete name : Хроники Риддика.(2004).HDTV.1080p.[-=DoMiNo=-].mkv
Format : Matroska
Format version : Version 4
File size : 4.63 GiB
Duration : 1 h 52 min
Overall bit rate : 5 883 kb/s
Movie name : Хроники Риддика / The Chronicles of Riddick (2004)
Encoded date : UTC 2019-04-15 06:22:56
Writing application : mkvmerge v33.0.0 ('A Little Bit of Madness') 64-bit
Writing library : libebml v1.3.7 + libmatroska v1.5.0
Attachments : poster.jpg

Video
ID : 1
Format : AVC
Format/Info : Advanced Video Codec
Format profile : High@L4
Format settings : CABAC / 4 Ref Frames
Format settings, CABAC : Yes
Format settings, ReFrames : 4 frames
Codec ID : V_MPEG4/ISO/AVC
Duration : 1 h 52 min
Bit rate : 5 120 kb/s
Width : 1 916 pixels
Height : 1 080 pixels
Display aspect ratio : 16:9
Frame rate mode : Constant
Frame rate : 23.976 (24000/1001) FPS
Color space : YUV
Chroma subsampling : 4:2:0
Bit depth : 8 bits
Scan type : Progressive
Bits/(Pixel*Frame) : 0.103
Stream size : 3.98 GiB (86%)
Title : -=DoMiNo=-
Writing library : x264 core 157 r2969 d4099dd
Encoding settings : cabac=1 / ref=3 / deblock=1:0:0 / analyse=0x3:0x113 / me=hex / subme=7 / psy=1 / psy_rd=1.00:0.00 / mixed_ref=1 / me_range=16 / chroma_me=1 / trellis=2 / 8x8dct=1 / cqm=0 / deadzone=21,11 / fast_pskip=1 / chroma_qp_offset=-2 / threads=6 / lookahead_threads=1 / sliced_threads=0 / nr=0 / decimate=1 / interlaced=0 / bluray_compat=0 / constrained_intra=0 / bframes=6 / b_pyramid=2 / b_adapt=2 / b_bias=0 / direct=1 / weightb=1 / open_gop=0 / weightp=2 / keyint=50 / keyint_min=26 / scenecut=40 / intra_refresh=0 / rc_lookahead=40 / rc=abr / mbtree=1 / bitrate=5120 / ratetol=1.0 / qcomp=0.60 / qpmin=0 / qpmax=69 / qpstep=4 / vbv_maxrate=7680 / vbv_bufsize=20480 / nal_hrd=none / filler=0 / ip_ratio=1.40 / aq=1:1.00
Language : English
Default : Yes
Forced : No
Color range : Limited

Audio #1
ID : 2
Format : AC-3
Format/Info : Audio Coding 3
Commercial name : Dolby Digital
Codec ID : A_AC3
Duration : 1 h 52 min
Bit rate mode : Constant
Bit rate : 448 kb/s
Channel(s) : 6 channels
Channel layout : L R C LFE Ls Rs
Sampling rate : 48.0 kHz
Frame rate : 31.250 FPS (1536 SPF)
Bit depth : 16 bits
Compression mode : Lossy
Stream size : 361 MiB (8%)
Title : DUB_[МОСФИЛЬМ-МАСТЕР-2004]
Language : Russian
Service kind : Complete Main
Default : Yes
Forced : No

Audio #2
ID : 3
Format : AC-3
Format/Info : Audio Coding 3
Commercial name : Dolby Digital
Codec ID : A_AC3
Duration : 1 h 52 min
Bit rate mode : Constant
Bit rate : 384 kb/s
Channel(s) : 6 channels
Channel layout : L R C LFE Ls Rs
Sampling rate : 48.0 kHz
Frame rate : 31.250 FPS (1536 SPF)
Bit depth : 16 bits
Compression mode : Lossy
Stream size : 310 MiB (7%)
Title : ENG
Language : English
Service kind : Complete Main
Default : No
Forced : No

Text
ID : 4
Format : UTF-8
Codec ID : S_TEXT/UTF8
Codec ID/Info : UTF-8 Plain Text
Duration : 1 h 48 min
Bit rate : 51 b/s
Count of elements : 669
Stream size : 40.5 KiB (0%)
Title : RUS
Language : Russian
Default : No
Forced : No

Menu
00:00:00.000 : :Глава 01
00:10:00.000 : :Глава 02
00:20:00.000 : :Глава 03
00:30:00.000 : :Глава 04
00:40:00.000 : :Глава 05
00:50:00.000 : :Глава 06
01:00:00.000 : :Глава 07
01:10:00.000 : :Глава 08
01:20:00.000 : :Глава 09
01:30:00.000 : :Глава 10
01:40:00.000 : :Глава 11
01:50:00.000 : :Глава 12
Не забывайте говорить Спасибо. Не уходите с раздачи!   
Торрент: Зарегистрирован [15 апр 2019, 09:28]
Статус:
Проверен
 
.torrent скачан: 439 раз
Хэш: 4b73dd12ba97fe269dbe1cc98e012325a4a63608
Размер: 4.63 ГБ (4 975 932 939 байт)
   Стать Автором раздачи
   
Цитата

Вернуться в Зарубежное кино (HD Video)

Кто сейчас на конференции

Сейчас эту тему просматривают: нет зарегистрированных пользователей и гости: 1