Настоящий американец / All American [S01] (2018) WEBRip 1080p | NewStudio

 Статистика раздачи 
Размер: 46.28 ГБ   |  Зарегистрирован: 15 апр 2019, 07:37   |   .torrent скачан: 1 раз
Сидеров: 3  [ 0 байт/сек ]     Личеров: 2  [ 0 байт/сек ]  
  
Аватара пользователя
Я на сайте
 
Раздал: 4.86 ТБ
Скачал: 185.14 ГБ
Ратио: 26.859
Сообщения: 219894
Стаж: 2 года 30 дней

Информация о сериале
Название: Настоящий американец
Оригинальное название: All American
Год выпуска: 2018 (1 сезон)
Жанр: Драма, спорт
Режиссер: Роб Харди, Дэвид МакУиртер
В ролях: Джордан Бэлфи, Коди Кристиан, Тэй Диггз, Бриана Лэйн, Саманта Логан, Монит Мазур и др.

О сериале:
Сюжет сериала основан на главных этапах жизни и карьеры выдающегося спортсмена, игрока в американский футбол Спенсера Пейсингера. Этот человек провел славную карьеру и стал настоящей живой легендой спорта. Когда-то давно он начинал свой путь к вершинам. Главный герой этого сериала - юный футболист, который прибыл в школу в Беверли Хиллз с юга, из Лос-Анджелеса. Он мечтает начать полупрофессиональную карьеру,чтобы в будущем претендовать на попадание в серьезную команду и игру на высочайшем уровне. Однако герою предстоит пройти непростой путь, на котором будут как победы, так и поражения..



Страна: США
Студия: Berlanti Productions, Warner Bros.
Продолжительность: ~ 00:42:00 серия
Перевод: Профессиональный (многоголосый, закадровый) [NewStudio]

Файл
Качество: WEBRip 1080p
Формат: Matroska
Видео: 1920x960 at 23.976 fps, MPEG-4 AVC, ~9436 kbps avg
Аудио#1: Russian: 48 kHz, AC3, 6 ch, ~384 kbps avg |Многоголосый закадровый, NewStudio|
Аудио#2: English: 48 kHz, EAС3, 6 ch, ~640 kbps avg
Субтитры: English (Full)

Примечание: Релиз без рекламы от Wanterlude

Без рекламы благодаря:
Wanterlude: 1-16 серии
Озвучка:
▪ Профессиональная многоголосая (NewStudio)
Субтитры:
▪ Английские (Full)

Дополнительная информация:
▪ Видеоряд: 1-8: All.American.S01.1080p.WEB.H264-METCON
9-16: All.American.2018.S01.1080p.AMZN.WEBRip.DDP5.1.x264-KiNGS

[*]Если взяли дорожку или сам релиз, будьте добры указать автора :)
General
Unique ID : 208642936986369638126979859542624259915 (0x9CF72B02397FFDC22AD2E245D6DD4F4B)
Complete name : D:Релизы ТрекерAll.American.S01.1080p.NewStudio.(Wanterlude)All.American.S01E01.1080p.NewStudio.(Wanterlude).mkv
Format : Matroska
Format version : Version 4
File size : 3.09 GiB
Duration : 42 min 20 s
Overall bit rate : 10.5 Mb/s
Movie name : All American | Ep 01 | NewStudio
Encoded date : UTC 2018-11-13 12:47:02
Writing application : mkvmerge v28.1.0 ('Morning Child') 64-bit
Writing library : libebml v1.3.6 + libmatroska v1.4.9
Video
ID : 1
Format : AVC
Format/Info : Advanced Video Codec
Format profile : High@L4
Format settings : CABAC / 4 Ref Frames
Format settings, CABAC : Yes
Format settings, RefFrames : 4 frames
Codec ID : V_MPEG4/ISO/AVC
Duration : 42 min 20 s
Bit rate : 9 436 kb/s
Width : 1 920 pixels
Height : 960 pixels
Display aspect ratio : 2.000
Frame rate mode : Constant
Frame rate : 23.976 (24000/1001) FPS
Color space : YUV
Chroma subsampling : 4:2:0
Bit depth : 8 bits
Scan type : Progressive
Bits/(Pixel*Frame) : 0.214
Stream size : 2.79 GiB (90%)
Title : All American | Ep 01 | NewStudio
Default : Yes
Forced : No
Color range : Limited
Color primaries : BT.709
Transfer characteristics : BT.709
Matrix coefficients : BT.709
Audio #1
ID : 2
Format : AC-3
Format/Info : Audio Coding 3
Commercial name : Dolby Digital
Codec ID : A_AC3
Duration : 42 min 20 s
Bit rate mode : Constant
Bit rate : 384 kb/s
Channel(s) : 6 channels
Channel layout : L R C LFE Ls Rs
Sampling rate : 48.0 kHz
Frame rate : 31.250 FPS (1536 SPF)
Bit depth : 16 bits
Compression mode : Lossy
Stream size : 116 MiB (4%)
Title : NewStudio | Wanterlude
Language : Russian
Service kind : Complete Main
Default : Yes
Forced : Yes
Audio #2
ID : 3
Format : E-AC-3
Format/Info : Enhanced AC-3
Commercial name : Dolby Digital Plus
Codec ID : A_EAC3
Duration : 42 min 20 s
Bit rate mode : Constant
Bit rate : 640 kb/s
Channel(s) : 6 channels
Channel layout : L R C LFE Ls Rs
Sampling rate : 48.0 kHz
Frame rate : 31.250 FPS (1536 SPF)
Compression mode : Lossy
Stream size : 194 MiB (6%)
Language : English
Service kind : Complete Main
Default : No
Forced : No
Text
ID : 4
Format : UTF-8
Codec ID : S_TEXT/UTF8
Codec ID/Info : UTF-8 Plain Text
Duration : 42 min 11 s
Bit rate : 92 b/s
Count of elements : 965
Stream size : 28.6 KiB (0%)
Title : English SDH
Language : English
Default : No
Forced : No

Не забывайте говорить Спасибо. Не уходите с раздачи!   
Торрент: Зарегистрирован [15 апр 2019, 07:37] Для скачивания .torrent
необходима регистрация
Или скачать с помощью
MediaGet
Статус:
Проверен
 
.torrent скачан: 1 раз
Хэш: 32c8d0ecb07660fadb1a3d2a40a521030b5346cd
Размер: 46.28 ГБ (49 688 602 464 байт)
   Стать Автором раздачи
   
Цитата
  • Похожие торренты
    Ответы
    Просмотры
    Последнее сообщение

Вернуться в Зарубежные сериалы

Кто сейчас на конференции

Сейчас эту тему просматривают: нет зарегистрированных пользователей и гости: 1