Джама Джурабаев | Как создать панорамное 360/VR изображение. Часть II / How to create a panoramic 360/VR painting VOL.II (2017) PCRec [H.264/1080p-LQ] [EN]

 Статистика раздачи 
Размер: 4.52 ГБ   |  Зарегистрирован: 28 фев 2019, 16:32   |   .torrent скачан: 0 раз
Сидеров: 4  [ 0 байт/сек ]     Личеров: 0  [ 0 байт/сек ]  
  
Аватара пользователя
 
Раздал: 2.57 ТБ
Скачал: 50.54 ГБ
Ратио: 52.141
Сообщения: 210726
Стаж: 3 года 1 месяц 16 дней

Джама Джурабаев | Как создать панорамное 360/VR изображение. Часть II / How to create a panoramic 360/VR painting VOL.II (2017) PCRec [H.264/1080p-LQ] [EN]

Автор (режиссер): Джама Джурабаев / Jama Jurabaev
Производство: Gumroad
Жанр: Рисование, Photoshop, 3D Coat

Описание:
Начав с основ 3D Coat, вы научитесь работать со всеми необходимыми инструментами по созданию панорамных изображений в 360 градусов / VR с нуля.
Вы узнаете, как использовать сетку перспективы, симметрию и другие мощные инструменты, которые помогут вам ускорить процессы панорамного рисования и дизайна. Завершив этот курс вы сможете экспортировать ваше изображение и делиться им в социальных сетях или просматривать с помощью шлема виртуальной реальности.

Продолжительность: 02:30:27
Качество видео: PCRec
Перевод: Отсутствует
Язык озвучки: Английский

Видео: AVC/H.264, 1920x1080, ~3871 Kbps
Аудио: AAC, 2 ch, 192 Kbps, VBR
Код: выделить все
General
Complete name                            : C:\Torrents\Jama Jurabaev - How to create a panoramic 360 VR painting VOL.II\02_VIDEOS\Chapter2_3D-COAT\Chapte2_01-Start-up file and camera.mp4
Format                                   : MPEG-4
Codec ID                                 : M4V
File size                                : 312 MiB
Duration                                 : 10mn 43s
Overall bit rate mode                    : Variable
Overall bit rate                         : 4 064 Kbps
Encoded date                             : UTC 2017-03-13 00:06:43
Tagged date                              : UTC 2017-03-13 00:06:47
©TIM                                     : 00:00:00:00
©TSC                                     : 30
©TSZ                                     : 1

Video
ID                                       : 1
Format                                   : AVC
Format/Info                              : Advanced Video Codec
Format profile                           : Main@L4.1
Format settings, CABAC                   : No
Format settings, ReFrames                : 2 frames
Format settings, GOP                     : M=1, N=30
Codec ID                                 : avc1
Codec ID/Info                            : Advanced Video Coding
Duration                                 : 10mn 43s
Bit rate                                 : 3 871 Kbps
Width                                    : 1 920 pixels
Height                                   : 1 080 pixels
Display aspect ratio                     : 16:9
Frame rate mode                          : Constant
Frame rate                               : 30.000 fps
Standard                                 : NTSC
Color space                              : YUV
Chroma subsampling                       : 4:2:0
Bit depth                                : 8 bits
Scan type                                : Progressive
Bits/(Pixel*Frame)                       : 0.062
Stream size                              : 297 MiB (95%)
Language                                 : English
Encoded date                             : UTC 2017-03-13 00:06:43
Tagged date                              : UTC 2017-03-13 00:06:43
Color primaries                          : BT.709
Transfer characteristics                 : BT.709
Matrix coefficients                      : BT.709

Audio
ID                                       : 2
Format                                   : AAC
Format/Info                              : Advanced Audio Codec
Format profile                           : LC
Codec ID                                 : 40
Duration                                 : 10mn 43s
Source duration                          : 10mn 43s
Bit rate mode                            : Variable
Bit rate                                 : 192 Kbps
Maximum bit rate                         : 272 Kbps
Channel(s)                               : 2 channels
Channel positions                        : Front: L R
Sampling rate                            : 48.0 KHz
Compression mode                         : Lossy
Stream size                              : 14.5 MiB (5%)
Source stream size                       : 14.5 MiB (5%)
Language                                 : English
Encoded date                             : UTC 2017-03-13 00:06:43
Tagged date                              : UTC 2017-03-13 00:06:43

В zip архивах находятся: файлы проектов 3D Coat и Photoshop, пресеты 3d Coat, кисти Photoshop, сетки перспективы в 360 градусов.

Скриншоты:




Время раздачи: с 16:00 до 22:00 (МСК) (до появления первых 3-5 скачавших)
Не забывайте говорить Спасибо. Не уходите с раздачи!   
Торрент: Зарегистрирован [28 фев 2019, 16:32]
Статус:
Проверен
 
.torrent скачан: 0 раз
Хэш: 0c7d472d5a7f728a0cae452566ef629715c737e0
Размер: 4.52 ГБ (4 849 879 069 байт)
   Стать Автором раздачи
   
Ничто так не успокаивает, как инструктаж по технике безопасности.
Цитата
  • Похожие торренты
    Ответы
    Просмотры
    Последнее сообщение

Вернуться в Производство и ремонт

Кто сейчас на конференции

Сейчас эту тему просматривают: нет зарегистрированных пользователей и гости: 1