Дюнкерк / Dunkirk (2017) HDTV [H.264/1080p-LQ] [Трейлер]

 Статистика раздачи 
Размер: 47.25 МБ   |  Зарегистрирован: 16 июл 2017, 20:20   |   .torrent скачан: 0 раз
Сидеров: 1  [ 0 байт/сек ]     Личеров: 0  [ 0 байт/сек ]  
  
Аватара пользователя
 
Раздал: 6.13 ТБ
Скачал: 195.34 ГБ
Ратио: 32.120
Сообщения: 238478
Стаж: 2 года 4 месяца 27 дней

Дюнкерк / Dunkirk (2017) HDTV [H.264/1080p-LQ]

Производство: Великобритания, Нидерланды, Франция, США
Жанр: Драма, Военный

Режиссер: Кристофер Нолан
Актеры: Фьён Уайтхед, Дэмиен Боннар, Анейрин Барнард, Lee Armstrong, Джеймс Блур, Барри Кеоган, Марк Райлэнс, Tom Glynn-Carney, Том Харди, Джек Лауден

Описание:
Фильм расскажет историю чудесного спасения более трехсот тысяч солдат в ходе Дюнкеркской операции, имевшей место в начале Второй мировой войны. События начинаются с окружения сотен тысяч британских и союзных войск силами противника. Пойманные в ловушку на пляже, находясь спиной к морю, они сталкиваются лицом к лицу с неразрешимой ситуацией, тем временем тиски противника сжимаются все сильнее и сильнее.



Рейтинг MPAA: PG-13 (детям до 13 лет просмотр нежелателен)
Дата мировой премьеры: 16 июля 2017
Дата российской премьеры: 20 июля 2017

Релиз от: «Каро-Премьер»
Продолжительность: 00:02:06
Качество видео: HDTV
Перевод: Дублированный
Субтитры: Русские (вшитые форсированные)

Видео: AVC/H.264, 1920x1080, 2934 Kbps
Аудио: MP3, 2 ch, 128 Kbps
Код: Выделить всё
Общее
Уникальный идентификатор                 : 230804763770156813909463226468911027559 (0xADA3616E0863299B15ADD446F6341567)
Полное имя                               : D:\Видео\torrrent\Раздача\Dunkerk_2017_trlr.mkv
Формат                                   : Matroska
Версия формата                           : Version 4 / Version 2
Размер файла                             : 47,2 Мбайт
Продолжительность                        : 2 м. 6 с.
Общий поток                              : 3125 Кбит/сек
Программа кодирования                    : Lavf57.25.100
Библиотека кодирования                   : Lavf57.25.100

Видео
Идентификатор                            : 1
Формат                                   : AVC
Формат/Информация                        : Advanced Video Codec
Профиль формата                          : High@L4
Параметр CABAC формата                   : Да
Параметр RefFrames формата               : 4 кадра
Идентификатор кодека                     : V_MPEG4/ISO/AVC
Продолжительность                        : 2 м. 6 с.
Битрейт                                  : 2934 Кбит/сек
Ширина                                   : 1920 пикселей
Высота                                   : 1080 пикселей
Соотношение сторон                       : 16:9
Режим частоты кадров                     : Постоянный
Частота кадров                           : 25,000 кадров/сек
Цветовое пространство                    : YUV
Субдискретизация насыщенности            : 4:2:0
Битовая глубина                          : 8 бит
Тип развёртки                            : Прогрессивная
Бит/(Пиксели*Кадры)                      : 0.057
Размер потока                            : 44,4 Мбайт (94%)
Библиотека кодирования                   : x264 core 148 r2643 5c65704
Настройки программы                      : cabac=1 / ref=3 / deblock=1:0:0 / analyse=0x3:0x133 / me=hex / subme=7 / psy=1 / psy_rd=1.00:0.00 / mixed_ref=1 / me_range=16 / chroma_me=1 / trellis=1 / 8x8dct=1 / cqm=0 / deadzone=21,11 / fast_pskip=1 / chroma_qp_offset=-2 / threads=3 / lookahead_threads=1 / sliced_threads=0 / nr=0 / decimate=1 / interlaced=0 / bluray_compat=0 / constrained_intra=0 / bframes=3 / b_pyramid=2 / b_adapt=1 / b_bias=0 / direct=1 / weightb=1 / open_gop=0 / weightp=2 / keyint=250 / keyint_min=25 / scenecut=40 / intra_refresh=0 / rc_lookahead=40 / rc=crf / mbtree=1 / crf=20.0 / qcomp=0.60 / qpmin=10 / qpmax=51 / qpstep=4 / ip_ratio=1.40 / aq=1:1.00
Default                                  : Да
Forced                                   : Нет
DURATION                                 : 00:02:06.840000000

Аудио
Идентификатор                            : 2
Формат                                   : MPEG Audio
Версия формата                           : Version 1
Профиль формата                          : Layer 3
Идентификатор кодека                     : A_MPEG/L3
Идентификатор кодека/Подсказка           : MP3
Продолжительность                        : 2 м. 6 с.
Вид битрейта                             : Постоянный
Битрейт                                  : 128 Кбит/сек
Каналы                                   : 2 канала
Частота                                  : 44,1 КГц
Метод сжатия                             : С потерями
Задержка видео                           : -40 мс.
Размер потока                            : 1,94 Мбайт (4%)
Библиотека кодирования                   : LAME3.99.5UUUUUUUU)4
Язык                                     : unknown
Default                                  : Да
Forced                                   : Нет
DURATION                                 : 00:02:06.775000000

Скриншоты:




Время раздачи: 24/7 (круглосуточно) (до появления первых 3-5 скачавших)
Не забывайте говорить Спасибо. Не уходите с раздачи!   
Торрент: Зарегистрирован [16 июл 2017, 20:20]
Статус:
Проверен
 
.torrent скачан: 0 раз
Хэш: ed2c37ef293d4c92143bb99aef604c319a51c349
Размер: 47.25 МБ (49 540 948 байт)
   Стать Автором раздачи
   
Цитата
  • Похожие торренты
    Ответы
    Просмотры
    Последнее сообщение

Вернуться в Трейлеры и доп.материалы к новинкам

Кто сейчас на конференции

Сейчас эту тему просматривают: нет зарегистрированных пользователей и гости: 1