Правила моей кухни 6 / My Kitchen Rules 6 (Серии 1-48 из 48) [2015, кулинария, IPTVRip, RUS]

 Статистика раздачи 
Размер: 17.48 ГБ   |  Зарегистрирован: 30 янв 2018, 16:57   |   .torrent скачан: 0 раз
Сидеров: 13  [ 0 байт/сек ]     Личеров: 2  [ 0 байт/сек ]  
  
Аватара пользователя
 
Раздал: 311.05 МБ
Скачал: 1.9 ГБ
Ратио: 0.160
Сообщения: 252036
Стаж: 9 лет 6 дней
Откуда: Rossiya

Правила моей кухни 6 / My Kitchen Rules 6
Страна: Австралия
Тематика: Кулинария
Тип раздаваемого материала: ТВ-шоу
Продолжительность: 48 эп. х ~55 мин.
Год выпуска: 2015
Язык: Русский
Перевод: Профессиональный (двухголосый)
Описание: Австралия. Штат против штата. Соревнующиеся команды борются за звание лучших поваров и за приз в двести пятьдесят тысяч долларов! Все, абсолютно все, здесь имеет значение: и вкус, и сервировка, и тончайшие вина! Ведущие, всё те же, давно полюбившиеся нам Пит и Ману!
Качество: IPTVRip
Формат: AVI
Видео кодек: XviD
Аудио кодек: MP3
Видео: Xvid, 624x352, ~770 Kbps, 25fps, 0.14 bit/pixel
Аудио: MP3, 48000Hz, 2ch, 128kbps
Complete name : E:\Video\Com\relizes\My Kitchen Rules 6\MKR_s06e07.avi
Format : AVI
Format/Info : Audio Video Interleave
File size : 358 MiB
Duration : 55mn 8s
Overall bit rate : 908 Kbps
Writing application : VirtualDubMod 1.5.10.3 (build 2550/release)
Writing library : VirtualDubMod build 2550/release
Video #0
ID : 0
Format : MPEG-4 Visual
Format profile : Advanced Simple@L5
Format settings, BVOP : 1
Format settings, QPel : No
Format settings, GMC : No warppoints
Format settings, Matrix : Default (H.263)
Codec ID : XVID
Codec ID/Hint : XviD
Duration : 55mn 8s
Bit rate : 770 Kbps
Width : 624 pixels
Height : 352 pixels
Display aspect ratio : 16:9
Frame rate : 25.000 fps
Color space : YUV
Chroma subsampling : 4:2:0
Bit depth : 8 bits
Scan type : Progressive
Compression mode : Lossy
Bits/(Pixel*Frame) : 0.140
Stream size : 304 MiB (85%)
Writing library : XviD 1.2.1 (UTC 2008-12-04)
Audio #1
ID : 1
Format : MPEG Audio
Format version : Version 1
Format profile : Layer 3
Mode : Joint stereo
Mode extension : MS Stereo
Codec ID : 55
Codec ID/Hint : MP3
Duration : 55mn 8s
Bit rate mode : Constant
Bit rate : 128 Kbps
Channel(s) : 2 channels
Sampling rate : 48.0 KHz
Compression mode : Lossy
Stream size : 50.5 MiB (14%)
Alignment : Aligned on interleaves
Interleave, duration : 40 ms (1.00 video frame)
Interleave, preload duration : 504 ms
Не забывайте говорить Спасибо. Не уходите с раздачи!   
Торрент: Зарегистрирован [30 янв 2018, 16:57]
Статус:
Проверен
 
.torrent скачан: 0 раз
Хэш: 90a70001dac57ff068fbe89885e3e8251ca98500
Размер: 17.48 ГБ (18 773 704 704 байт)
   Стать Автором раздачи
   
Цитата

Вернуться в Видеоуроки по кулинарии

Кто сейчас на конференции

Сейчас эту тему просматривают: нет зарегистрированных пользователей и гости: 1