Fredrik Kronkvist 3 - In The Raw (2006) Connective Records [FLAC|Lossless|tracks + .cue] <Post-Bop, Contemporary Jazz>

 Статистика раздачи 
Размер: 301.11 МБ   |  Зарегистрирован: 14 мар 2019, 13:06   |   .torrent скачан: 0 раз
Сидеров: 4  [ 0 байт/сек ]     Личеров: 0  [ 0 байт/сек ]  
  
Аватара пользователя
 
Раздал: 2.32 ТБ
Скачал: 50.54 ГБ
Ратио: 47.072
Сообщения: 195751
Стаж: 2 года 10 месяцев 18 дней

Fredrik Kronkvist 3 - In The Raw (2006) Connective Records

Жанр: Post-Bop, Contemporary Jazz
Издание: Connective Records - CTV36513
Продолжительность: 00:47:29

Кодек: FLAC (tracks+.cue)
Битрейт: Lossless
Источник (релизер): Entrimo
Страна-производитель диска: Germany
Наличие сканов в содержимом раздачи: нет

Треклист:

01. The Impaler [4:09]
02. Love Is a Many Splendoured Thing [6:12]
03. Gazzeloni [4:03]
04. What Are You Doing the Rest of Your Life? [6:06]
05. Mean Gene [4:07]
06. Lotus Blossom [5:02]
07. Breezer [4:58]
08. Cannonballism [5:42]
09. In the Raw [4:00]
10. Lover [3:09]
Fredrik Kronkvist - alto saxophone
Daniel Franck - bass
Daniel Fredriksson - drums
Код: Выделить всё
Exact Audio Copy V1.3 from 2. September 2016

EAC extraction logfile from 28. September 2018, 17:26

Fredrik Kronkvist 3 / In the Raw

Used drive  : TSSTcorpCDDVDW SH-222AB   Adapter: 1  ID: 0

Read mode               : Secure
Utilize accurate stream : Yes
Defeat audio cache      : Yes
Make use of C2 pointers : No

Read offset correction                      : 6
Overread into Lead-In and Lead-Out          : No
Fill up missing offset samples with silence : Yes
Delete leading and trailing silent blocks   : No
Null samples used in CRC calculations       : Yes
Used interface                              : Native Win32 interface for Win NT & 2000
Gap handling                                : Appended to previous track

Used output format              : User Defined Encoder
Selected bitrate                : 1024 kBit/s
Quality                         : High
Add ID3 tag                     : No
Command line compressor         : C:\Program Files (x86)\Exact Audio Copy\Flac\flac.exe
Additional command line options : -8 -V -T "ARTIST=%artist%" -T "TITLE=%title%" -T "ALBUM=%albumtitle%" -T "DATE=%year%" -T "TRACKNUMBER=%tracknr%" -T "GENRE=%genre%" -T "PERFORMER=%albuminterpret%" -T "COMPOSER=%composer%" %haslyrics%--tag-from-file=LYRICS="%lyricsfile%"%haslyrics% -T "ALBUMARTIST=%albumartist%" -T "DISCNUMBER=%cdnumber%" -T "TOTALDISCS=%totalcds%" -T "TOTALTRACKS=%numtracks%" -T "COMMENT=%comment%" %source% -o %dest%

TOC of the extracted CD

     Track |   Start  |  Length  | Start sector | End sector
    ---------------------------------------------------------
        1  |  0:00.00 |  4:09.11 |         0    |    18685
        2  |  4:09.11 |  6:11.51 |     18686    |    46561
        3  | 10:20.62 |  4:03.30 |     46562    |    64816
        4  | 14:24.17 |  6:05.67 |     64817    |    92258
        5  | 20:30.09 |  4:07.06 |     92259    |   110789
        6  | 24:37.15 |  5:01.43 |    110790    |   133407
        7  | 29:38.58 |  4:58.19 |    133408    |   155776
        8  | 34:37.02 |  5:42.20 |    155777    |   181446
        9  | 40:19.22 |  4:00.34 |    181447    |   199480
       10  | 44:19.56 |  3:09.34 |    199481    |   213689

Track  1

     Filename D:\EACRips\Fredrik Kronkvist - In The Raw (2006) {CTV36513} FLAC\01 - The impaler.wav

     Pre-gap length  0:00:02.00

     Peak level 98.8 %
     Extraction speed 0.6 X
     Track quality 100.0 %
     Test CRC B89ADCDD
     Copy CRC B89ADCDD
     Track not present in AccurateRip database
     Copy OK

Track  2

     Filename D:\EACRips\Fredrik Kronkvist - In The Raw (2006) {CTV36513} FLAC\02 - Love is a many splendoured thing.wav

     Peak level 98.8 %
     Extraction speed 0.6 X
     Track quality 100.0 %
     Test CRC 4FA2BB7A
     Copy CRC 4FA2BB7A
     Track not present in AccurateRip database
     Copy OK

Track  3

     Filename D:\EACRips\Fredrik Kronkvist - In The Raw (2006) {CTV36513} FLAC\03 - Gazzeloni.wav

     Peak level 98.8 %
     Extraction speed 0.5 X
     Track quality 100.0 %
     Test CRC FAB446C0
     Copy CRC FAB446C0
     Track not present in AccurateRip database
     Copy OK

Track  4

     Filename D:\EACRips\Fredrik Kronkvist - In The Raw (2006) {CTV36513} FLAC\04 - What are you doing the rest of your life.wav

     Pre-gap length  0:00:03.88

     Peak level 98.8 %
     Extraction speed 0.5 X
     Track quality 100.0 %
     Test CRC D4C2E199
     Copy CRC D4C2E199
     Track not present in AccurateRip database
     Copy OK

Track  5

     Filename D:\EACRips\Fredrik Kronkvist - In The Raw (2006) {CTV36513} FLAC\05 - Mean Gene.wav

     Pre-gap length  0:00:02.08

     Peak level 98.8 %
     Extraction speed 0.5 X
     Track quality 100.0 %
     Test CRC 8E8AF087
     Copy CRC 8E8AF087
     Track not present in AccurateRip database
     Copy OK

Track  6

     Filename D:\EACRips\Fredrik Kronkvist - In The Raw (2006) {CTV36513} FLAC\06 - Lotus blossom.wav

     Pre-gap length  0:00:01.88

     Peak level 98.8 %
     Extraction speed 0.5 X
     Track quality 100.0 %
     Test CRC 991B79B8
     Copy CRC 991B79B8
     Track not present in AccurateRip database
     Copy OK

Track  7

     Filename D:\EACRips\Fredrik Kronkvist - In The Raw (2006) {CTV36513} FLAC\07 - Breezer.wav

     Peak level 98.8 %
     Extraction speed 0.5 X
     Track quality 100.0 %
     Test CRC 8F3BC88D
     Copy CRC 8F3BC88D
     Track not present in AccurateRip database
     Copy OK

Track  8

     Filename D:\EACRips\Fredrik Kronkvist - In The Raw (2006) {CTV36513} FLAC\08 - Cannonballism.wav

     Peak level 98.8 %
     Extraction speed 0.4 X
     Track quality 99.9 %
     Test CRC 0DB785A8
     Copy CRC 0DB785A8
     Track not present in AccurateRip database
     Copy OK

Track  9

     Filename D:\EACRips\Fredrik Kronkvist - In The Raw (2006) {CTV36513} FLAC\09 - In the raw.wav

     Pre-gap length  0:00:01.90

     Peak level 98.8 %
     Extraction speed 0.4 X
     Track quality 100.0 %
     Test CRC 512E6A3C
     Copy CRC 512E6A3C
     Track not present in AccurateRip database
     Copy OK

Track 10

     Filename D:\EACRips\Fredrik Kronkvist - In The Raw (2006) {CTV36513} FLAC\10 - Lover.wav

     Pre-gap length  0:00:01.16

     Peak level 98.8 %
     Extraction speed 0.4 X
     Track quality 100.0 %
     Test CRC 0F5646CA
     Copy CRC 0F5646CA
     Track not present in AccurateRip database
     Copy OK

None of the tracks are present in the AccurateRip database

No errors occurred

End of status report

---- CUETools DB Plugin V2.1.6

[CTDB TOCID: 98yj7JvZGkXYDXyyYevsRQqExAE-] found
Submit result: 98yj7JvZGkXYDXyyYevsRQqExAE- has been confirmed
Track | CTDB Status
  1   | (2/2) Accurately ripped
  2   | (2/2) Accurately ripped
  3   | (2/2) Accurately ripped
  4   | (2/2) Accurately ripped
  5   | (2/2) Accurately ripped
  6   | (2/2) Accurately ripped
  7   | (2/2) Accurately ripped
  8   | (2/2) Accurately ripped
  9   | (2/2) Accurately ripped
 10   | (2/2) Accurately ripped

==== Log checksum 67519A5F3FED7DCF7B7A54290C8AFB309B56D59EECA380EF48FA74F77E8E75A4 ====
Время раздачи: c 15:00 до 22:00 (до появления первых 3-5 скачавших)
#7
Код: Выделить всё
[b]Поглощение/вытеснение [/b]
[b]Только с согласия релизера[/b]
[b][u][i]Beijing65[/b][/i][/u]
Не забывайте говорить Спасибо. Не уходите с раздачи!   
Торрент: Зарегистрирован [14 мар 2019, 13:06] Для скачивания .torrent
необходима регистрация
Или скачать с помощью
MediaGet
Статус:
Проверен
 
.torrent скачан: 0 раз
Хэш: ad19557a529f846a7797e9221e4c6f8ebcd51b2c
Размер: 301.11 МБ (315 733 738 байт)
   Стать Автором раздачи
   
Цитата
  • Похожие торренты
    Ответы
    Просмотры
    Последнее сообщение

Вернуться в Jazz

Кто сейчас на конференции

Сейчас эту тему просматривают: нет зарегистрированных пользователей и гости: 1