Лондонские поля / London Fields (2018) BDRip-AVC от OlLanDGroup | iTunes

 Статистика раздачи 
Размер: 2.01 ГБ   |  Зарегистрирован: 14 мар 2019, 15:58   |   .torrent скачан: 196 раз
Сидеров: 79  [ 0 байт/сек ]     Личеров: 6  [ 0 байт/сек ]  
  
Аватара пользователя
Я на сайте
 
Раздал: 5.3 ТБ
Скачал: 188.18 ГБ
Ратио: 28.826
Сообщения: 225205
Стаж: 2 года 1 месяц 29 дней

Лондонские поля / London Fields
«Каждый хочет Николу Сикс... Видеть мертвой»



Год выпуска: 2018
Страна: Великобритания, США
Производство: Muse Productions, Periscope Entertainment, Curiously Bright Entertainment
Жанр: Триллер, криминал, детектив


Режиссёр: Мэтью Каллен
В ролях: Эмбер Хёрд, Джемма Чан, Кара Делевинь, Тео Джеймс, Джейсон Айзекс, Джейми Александер, Билли Боб Торнтон, Джим Стёрджесс, Лили Коул, Генри Гаррет, Джонни Депп


Перевод: Дублированный | [iTunes]
Субтитры: Английские (полные, SDH)
Реклама: Отсутствует

Описание: Никола Сикс, роковая красотка, обладающая даром ясновидения, живет с предчувствием своей скорой смерти. Не удержавшись, она начинает опасный любовный роман сразу с тремя совершено разными мужчинами, хотя Никола точно знает, что один из них вскоре станет её убийцей...




Качество: BDRip-AVC | BDRemux | London.Fields.2018.BDREMUX.1080p.seleZen
Продолжительность: 01:47:54

Формат: MKV
Видео кодек: MPEG-4 AVC
Аудио кодек: AC3
Видео: 1024x428 (2.40:1), 23,976 fps, x264 ~1 833 kbps avg, 0.174 bit/pixel
Аудио #1: 48 kHz, AC3 Dolby Digital Plus, 3/2 (L,C,R,l,r) + LFE ch, ~384.00 kbps avg | RUS (iTunes)
Аудио #2: 48 kHz, AC3 Dolby Digital Plus, 3/2 (L,C,R,l,r) + LFE ch, ~448.00 kbps avg | ENG

Дата премьеры (мир): 6 сентября 2018
Дата премьеры (РФ): 20 сентября 2018, «Парадиз»
Цифровой релиз:


Релиз от:
Общее
Уникальный идентификатор : 215712339016731163552924056541928188562 (0xA248AF7062A20E2E587086B118816A92)
Полное имя : F:OlLanDGroupLondon.Fields.2018.BDRip(AVC).OllanDGroup.mkv
Формат : Matroska
Версия формата : Version 4 / Version 2
Размер файла : 2,01 Гбайт
Продолжительность : 1 ч. 47 м.
Общий поток : 2665 Кбит/сек
Название фильма : London Fields 2018 #TorpedoUK#
Дата кодирования : UTC 2019-03-14 12:35:22
Программа кодирования : mkvmerge v29.0.0 ('Like It Or Not') 64-bit
Библиотека кодирования : libebml v1.3.6 + libmatroska v1.4.9

Видео
Идентификатор : 1
Формат : AVC
Формат/Информация : Advanced Video Codec
Профиль формата : High@L4.1
Параметр CABAC формата : Да
Параметр ReFrames формата : 10 кадров
Идентификатор кодека : V_MPEG4/ISO/AVC
Продолжительность : 1 ч. 47 м.
Битрейт : 1833 Кбит/сек
Ширина : 1024 пикселя
Высота : 428 пикселей
Соотношение сторон : 2,40:1
Режим частоты кадров : Постоянный
Частота кадров : 23,976 (24000/1001) кадра/сек
Цветовое пространство : YUV
Субдискретизация насыщенности : 4:2:0
Битовая глубина : 8 бит
Тип развёртки : Прогрессивная
Бит/(Пиксели*Кадры) : 0.174
Размер потока : 1,38 Гбайт (69%)
Библиотека кодирования : x264 core 146 r2538 121396c
Настройки программы : cabac=1 / ref=10 / deblock=1:-3:-3 / analyse=0x3:0x113 / me=umh / subme=11 / psy=1 / psy_rd=0.99:0.04 / mixed_ref=1 / me_range=48 / chroma_me=1 / trellis=2 / 8x8dct=1 / cqm=0 / deadzone=21,11 / fast_pskip=1 / chroma_qp_offset=-3 / threads=6 / lookahead_threads=1 / sliced_threads=0 / nr=0 / decimate=1 / interlaced=0 / bluray_compat=0 / constrained_intra=0 / bframes=11 / b_pyramid=2 / b_adapt=2 / b_bias=0 / direct=3 / weightb=1 / open_gop=0 / weightp=2 / keyint=240 / keyint_min=23 / scenecut=40 / intra_refresh=0 / rc_lookahead=40 / rc=2pass / mbtree=0 / bitrate=1833 / ratetol=1.0 / qcomp=0.60 / qpmin=0 / qpmax=69 / qpstep=4 / cplxblur=20.0 / qblur=0.5 / vbv_maxrate=50000 / vbv_bufsize=62500 / nal_hrd=none / filler=0 / ip_ratio=1.40 / pb_ratio=1.30 / aq=1:1.00
Язык : English
Default : Да
Forced : Нет

Аудио #1
Идентификатор : 2
Формат : AC-3
Формат/Информация : Audio Coding 3
Расширение режима : CM (complete main)
Параметр Endianness формата : Big
Идентификатор кодека : A_AC3
Продолжительность : 1 ч. 47 м.
Вид битрейта : Постоянный
Битрейт : 384 Кбит/сек
Каналы : 6 каналов
Расположение каналов : Front: L C R, Side: L R, LFE
Частота : 48,0 КГц
Частота кадров : 31,250 кадров/сек (1536 spf)
Битовая глубина : 16 бит
Метод сжатия : С потерями
Размер потока : 296 Мбайт (14%)
Заголовок : DUB [iTunes]
Язык : Russian
Default : Да
Forced : Нет

Аудио #2
Идентификатор : 3
Формат : AC-3
Формат/Информация : Audio Coding 3
Расширение режима : CM (complete main)
Параметр Endianness формата : Big
Идентификатор кодека : A_AC3
Продолжительность : 1 ч. 47 м.
Вид битрейта : Постоянный
Битрейт : 448 Кбит/сек
Каналы : 6 каналов
Расположение каналов : Front: L C R, Side: L R, LFE
Частота : 48,0 КГц
Частота кадров : 31,250 кадров/сек (1536 spf)
Битовая глубина : 16 бит
Метод сжатия : С потерями
Размер потока : 346 Мбайт (17%)
Заголовок : [Original]
Язык : English
Default : Нет
Forced : Нет

Текст #1
Идентификатор : 4
Формат : UTF-8
Идентификатор кодека : S_TEXT/UTF8
Идентификатор кодека/Информация : UTF-8 Plain Text
Продолжительность : 1 ч. 45 м.
Битрейт : 53 бит/сек
Count of elements : 1372
Размер потока : 41,6 Кбайт (0%)
Заголовок : Full
Язык : English
Default : Нет
Forced : Нет

Текст #2
Идентификатор : 5
Формат : UTF-8
Идентификатор кодека : S_TEXT/UTF8
Идентификатор кодека/Информация : UTF-8 Plain Text
Продолжительность : 1 ч. 46 м.
Битрейт : 56 бит/сек
Count of elements : 1479
Размер потока : 43,7 Кбайт (0%)
Заголовок : SDH
Язык : English
Default : Нет
Forced : Нет

Меню
00:00:00.000 : en:Chapter 01
00:15:57.498 : en:Chapter 02
00:28:36.006 : en:Chapter 03
00:41:57.890 : en:Chapter 04
00:53:24.326 : en:Chapter 05
01:07:31.589 : en:Chapter 06
01:20:45.632 : en:Chapter 07
01:42:51.332 : en:Chapter 08




Не забывайте говорить Спасибо. Не уходите с раздачи!   
Торрент: Зарегистрирован [14 мар 2019, 15:58] Для скачивания .torrent
необходима регистрация
Или скачать с помощью
MediaGet
Статус:
Проверен
 
.torrent скачан: 196 раз
Хэш: bb2aa11d724378d0ff51f122d3ee0e4e4eded1aa
Размер: 2.01 ГБ (2 157 110 287 байт)
   Стать Автором раздачи
   
Цитата
  • Похожие торренты
    Ответы
    Просмотры
    Последнее сообщение

Вернуться в Зарубежное кино (HDRip, DVDRip)

Кто сейчас на конференции

Сейчас эту тему просматривают: нет зарегистрированных пользователей и гости: 1