Проклятие монахини / The Nun (2018) DVD9 | Лицензия

 Статистика раздачи 
Размер: 4.81 ГБ   |  Зарегистрирован: 14 мар 2019, 14:39   |   .torrent скачан: 52 раз
Сидеров: 15  [ 0 байт/сек ]     Личеров: 10  [ 0 байт/сек ]  
  
Аватара пользователя
Я на сайте
 
Раздал: 4.36 ТБ
Скачал: 137.99 ГБ
Ратио: 32.328
Сообщения: 212983
Стаж: 1 год 11 месяцев 29 дней

Информация о фильме
Название: Проклятие монахини
Оригинальное название: The Nun
Год выхода: 2018
Жанр: ужасы, триллер, детектив
Режиссер: Корин Харди
В ролях: Демиан Бишир, Таисса Фармига, Йонас Блоке, Бонни Ааронс, Ингрид Бису, Патрик Уилсон, Вера Фармига, Лили Тейлор, Шарлотта Хоуп, Сандра Телес

О фильме:
Когда в уединенном монастыре в Румынии совершает самоубийство молодая монахиня, расследовать происшествие Ватикан отправляет священника с туманным прошлым и послушницу на пороге невозвратных обетов. Рискуя не только жизнями, но и своими душами, они сталкиваются со злобной силой, принявшей облик демонической монахини, а монастырь становится полем ужасающей битвы между живыми и проклятыми.

Страна: США
Студия: Atomic Monster, New Line Cinema, The Safran Company
Продолжительность: 97 мин. / 01:37
Перевод: профессиональный (дублированный) лицензия

Файл
Кодек: MPEG2
Качество: DVD9 R5
Видео: PAL 16:9 (720x576@1024x576) VBR 6205 Kbps, 25.000 fps
Аудио 1: Dolby AC3, 6 ch, 48.0 KHz, 384 Kbps (русский)
Аудио 2: Dolby AC3, 6 ch, 48.0 KHz, 384 Kbps (английский)
Аудио 3: Dolby AC3, 6 ch, 48.0 KHz, 384 Kbps (польский)
Аудио 4: Dolby AC3, 6 ch, 48.0 KHz, 384 Kbps (турецкий)
Аудио 5: Dolby AC3, 2 ch, 48.0 KHz, 192 Kbps (английский)
Субтитры: русские, английские, болгарские, хорватские, эстонские, латышские, литовские, польские, словенские, турецкие

Формат : MPEG-PS
Размер файла : 1024 Мбайт
Продолжительность : 17 м. 41 с.
Режим общего битрейта : Переменный
Общий поток : 8094 Кбит/сек

Видео
Идентификатор : 224 (0xE0)
Формат : MPEG Video
Версия формата : Version 2
Профиль формата : Main@Main
Настройки формата : CustomMatrix / BVOP
Параметр BVOP формата : Да
Параметр матрицы формата : Выборочная
Параметр GOP формата : Variable
Продолжительность : 17 м. 41 с.
Вид битрейта : Переменный
Битрейт : 6205 Кбит/сек
Максимальный битрейт : 9800 Кбит/сек
Ширина : 720 пикселей
Высота : 576 пикселей
Соотношение сторон : 16:9
Частота кадров : 25,000 кадров/сек
Стандарт вещания : PAL
Цветовое пространство : YUV
Субдискретизация насыщенности : 4:2:0
Битовая глубина : 8 бит
Тип развёртки : Прогрессивная
Порядок развёртки : Верхнее поле первое
Метод сжатия : С потерями
Бит/(Пиксели*Кадры) : 0.598
Временной код первого кадра : 00:59:58:00
Оригинал временного кода : Group of pictures header
Размер потока : 785 Мбайт (77%)

Аудио #1
Идентификатор : 189 (0xBD)-132 (0x84)
Формат : AC-3
Формат/Информация : Audio Coding 3
Режим смешивания : DVD-Video
Продолжительность : 17 м. 41 с.
Вид битрейта : Постоянный
Битрейт : 192 Кбит/сек
Каналы : 2 канала
Расположение каналов : Front: L R
Частота : 48,0 КГц
Частота кадров : 31,250 кадров/сек (1536 SPF)
Битовая глубина : 16 бит
Метод сжатия : С потерями
Размер потока : 24,3 Мбайт (2%)

Аудио #2
Идентификатор : 189 (0xBD)-128 (0x80)
Формат : AC-3
Формат/Информация : Audio Coding 3
Режим смешивания : DVD-Video
Продолжительность : 4 с. 512 мс.
Вид битрейта : Постоянный
Битрейт : 384 Кбит/сек
Каналы : 6 каналов
Расположение каналов : Front: L C R, Side: L R, LFE
Частота : 48,0 КГц
Частота кадров : 31,250 кадров/сек (1536 SPF)
Битовая глубина : 16 бит
Метод сжатия : С потерями
Размер потока : 212 Кбайт (0%)

Аудио #3
Идентификатор : 189 (0xBD)-129 (0x81)
Формат : AC-3
Формат/Информация : Audio Coding 3
Режим смешивания : DVD-Video
Продолжительность : 4 с. 512 мс.
Вид битрейта : Постоянный
Битрейт : 384 Кбит/сек
Каналы : 6 каналов
Расположение каналов : Front: L C R, Side: L R, LFE
Частота : 48,0 КГц
Частота кадров : 31,250 кадров/сек (1536 SPF)
Битовая глубина : 16 бит
Метод сжатия : С потерями
Размер потока : 212 Кбайт (0%)

Аудио #4
Идентификатор : 189 (0xBD)-130 (0x82)
Формат : AC-3
Формат/Информация : Audio Coding 3
Режим смешивания : DVD-Video
Продолжительность : 4 с. 512 мс.
Вид битрейта : Постоянный
Битрейт : 384 Кбит/сек
Каналы : 6 каналов
Расположение каналов : Front: L C R, Side: L R, LFE
Частота : 48,0 КГц
Частота кадров : 31,250 кадров/сек (1536 SPF)
Битовая глубина : 16 бит
Метод сжатия : С потерями
Размер потока : 212 Кбайт (0%)

Аудио #5
Идентификатор : 189 (0xBD)-131 (0x83)
Формат : AC-3
Формат/Информация : Audio Coding 3
Режим смешивания : DVD-Video
Продолжительность : 4 с. 512 мс.
Вид битрейта : Постоянный
Битрейт : 384 Кбит/сек
Каналы : 6 каналов
Расположение каналов : Front: L C R, Side: L R, LFE
Частота : 48,0 КГц
Частота кадров : 31,250 кадров/сек (1536 SPF)
Битовая глубина : 16 бит
Метод сжатия : С потерями
Размер потока : 212 Кбайт (0%)

Текст #1
Идентификатор : 189 (0xBD)-32 (0x20)
Формат : RLE
Формат/Информация : Run-length encoding
Режим смешивания : DVD-Video
Продолжительность : 17 м. 35 с.
Задержка видео : 4 с. 480 мс.

Текст #2
Идентификатор : 189 (0xBD)-38 (0x26)
Формат : RLE
Формат/Информация : Run-length encoding
Режим смешивания : DVD-Video
Продолжительность : 17 м. 35 с.
Задержка видео : 4 с. 480 мс.

Текст #3
Идентификатор : 189 (0xBD)-39 (0x27)
Формат : RLE
Формат/Информация : Run-length encoding
Режим смешивания : DVD-Video
Продолжительность : 17 м. 35 с.
Задержка видео : 4 с. 480 мс.

Текст #4
Идентификатор : 189 (0xBD)-42 (0x2A)
Формат : RLE
Формат/Информация : Run-length encoding
Режим смешивания : DVD-Video
Задержка видео : 4 с. 480 мс.

Текст #5
Идентификатор : 189 (0xBD)-33 (0x21)
Формат : RLE
Формат/Информация : Run-length encoding
Режим смешивания : DVD-Video

Текст #6
Идентификатор : 189 (0xBD)-34 (0x22)
Формат : RLE
Формат/Информация : Run-length encoding
Режим смешивания : DVD-Video

Текст #7
Идентификатор : 189 (0xBD)-35 (0x23)
Формат : RLE
Формат/Информация : Run-length encoding
Режим смешивания : DVD-Video

Текст #8
Идентификатор : 189 (0xBD)-36 (0x24)
Формат : RLE
Формат/Информация : Run-length encoding
Режим смешивания : DVD-Video

Текст #9
Идентификатор : 189 (0xBD)-37 (0x25)
Формат : RLE
Формат/Информация : Run-length encoding
Режим смешивания : DVD-Video

Текст #10
Идентификатор : 189 (0xBD)-40 (0x28)
Формат : RLE
Формат/Информация : Run-length encoding
Режим смешивания : DVD-Video

Текст #11
Идентификатор : 189 (0xBD)-41 (0x29)
Формат : RLE
Формат/Информация : Run-length encoding
Режим смешивания : DVD-Video

Меню

Не забывайте говорить Спасибо. Не уходите с раздачи!   
Торрент: Зарегистрирован [14 мар 2019, 14:39] Для скачивания .torrent
необходима регистрация
Или скачать с помощью
MediaGet
Статус:
Проверен
 
.torrent скачан: 52 раз
Хэш: f90b70a97435b81147839d1aa5c641a1456cd6f1
Размер: 4.81 ГБ (5 167 210 496 байт)
   Стать Автором раздачи
   
Цитата

Вернуться в Зарубежное кино (DVD)

Кто сейчас на конференции

Сейчас эту тему просматривают: нет зарегистрированных пользователей и гости: 1