Уиджи: Проклятие Вероники / Verónica (2017) DVD9 | Лицензия

 Статистика раздачи 
Размер: 5.98 ГБ   |  Зарегистрирован: 14 мар 2019, 14:06   |   .torrent скачан: 66 раз
Сидеров: 21  [ 0 байт/сек ]     Личеров: 15  [ 0 байт/сек ]  
  
Аватара пользователя
Я на сайте
 
Раздал: 4.36 ТБ
Скачал: 137.99 ГБ
Ратио: 32.328
Сообщения: 212983
Стаж: 1 год 11 месяцев 29 дней

Информация о фильме
Название: Уиджи: Проклятие Вероники
Оригинальное название: Verónica
Год выхода: 2017
Жанр: ужасы
Режиссер: Пако Пласа
В ролях: Сандра Эскасена, Бруна Гонсалес, Клаудия Плейсер, Иван Чаверо, Ана Торрент, Консуэло Трухильо, Анхела Фабиан, Карла Кампра, Чема Адева, Миранда Гас

О фильме:
Уиджи — это доска для спиритических сеансов вызова душ умерших. Ее называют доской Дьявола, потому что общение с загробным миром не обходится для живого человека без последствий. Тот, кто берет в руки Уиджи, должен знать, что она обладает страшной властью открывать врата чудовищному злу, противостоять которому практически невозможно.

Вероника, красивая и веселая старшеклассница, даже представить не могла, чем для нее закончится то, что она считала невинной игрой…

Страна: Испания
Студия: Apache Films, Radio Televisión Española (RTVE), Sony Pictures International Productions
Продолжительность: 101 мин. / 01:41
Перевод: профессиональный (дублированный) лицензия

Файл
Кодек: MPEG2
Качество: DVD9 R5
Видео: PAL 16:9 (720x576@1024x576) VBR 7021 Kbps, 25.000 fps
Аудио 1: Dolby AC3, 6 ch, 48.0 KHz, 384 Kbps (русский)
Аудио 2: Dolby AC3, 6 ch, 48.0 KHz, 384 Kbps (испанский)
Субтитры: русские

Общее
Полное имя : Proklyatie.Veroniki.2017.DVD9VIDEO_TSVTS_07_1.VOB
Формат : MPEG-PS
Размер файла : 1024 Мбайт
Продолжительность : 18 м. 0 с.
Режим общего битрейта : Переменный
Общий поток : 7947 Кбит/сек

Видео
Идентификатор : 224 (0xE0)
Формат : MPEG Video
Версия формата : Version 2
Профиль формата : Main@Main
Настройки формата : BVOP
Параметр BVOP формата : Да
Параметр матрицы формата : По умолчанию
Параметр GOP формата : M=3, N=12
Продолжительность : 18 м. 0 с.
Вид битрейта : Переменный
Битрейт : 7021 Кбит/сек
Максимальный битрейт : 8500 Кбит/сек
Ширина : 720 пикселей
Высота : 576 пикселей
Соотношение сторон : 16:9
Частота кадров : 25,000 кадров/сек
Стандарт вещания : PAL
Цветовое пространство : YUV
Субдискретизация насыщенности : 4:2:0
Битовая глубина : 8 бит
Тип развёртки : Прогрессивная
Метод сжатия : С потерями
Бит/(Пиксели*Кадры) : 0.677
Временной код первого кадра : 00:00:00:00
Оригинал временного кода : Group of pictures header
GOP, открыто/закрыто : Открыто
GOP, открыто/закрыто на первом кадре : Закрыто
Размер потока : 905 Мбайт (88%)

Аудио #1
Идентификатор : 189 (0xBD)-128 (0x80)
Формат : AC-3
Формат/Информация : Audio Coding 3
Режим смешивания : DVD-Video
Продолжительность : 18 м. 0 с.
Вид битрейта : Постоянный
Битрейт : 384 Кбит/сек
Каналы : 6 каналов
Расположение каналов : Front: L C R, Side: L R, LFE
Частота : 48,0 КГц
Частота кадров : 31,250 кадров/сек (1536 SPF)
Битовая глубина : 16 бит
Метод сжатия : С потерями
Размер потока : 49,5 Мбайт (5%)

Аудио #2
Идентификатор : 189 (0xBD)-129 (0x81)
Формат : AC-3
Формат/Информация : Audio Coding 3
Режим смешивания : DVD-Video
Продолжительность : 18 м. 0 с.
Вид битрейта : Постоянный
Битрейт : 384 Кбит/сек
Каналы : 6 каналов
Расположение каналов : Front: L C R, Side: L R, LFE
Частота : 48,0 КГц
Частота кадров : 31,250 кадров/сек (1536 SPF)
Битовая глубина : 16 бит
Метод сжатия : С потерями
Размер потока : 49,5 Мбайт (5%)

Текст
Идентификатор : 189 (0xBD)-32 (0x20)
Формат : RLE
Формат/Информация : Run-length encoding
Режим смешивания : DVD-Video

Меню

Не забывайте говорить Спасибо. Не уходите с раздачи!   
Торрент: Зарегистрирован [14 мар 2019, 14:06] Для скачивания .torrent
необходима регистрация
Или скачать с помощью
MediaGet
Статус:
Проверен
 
.torrent скачан: 66 раз
Хэш: 619a2e3e903ed118560599bf437113bf0d2d5f9c
Размер: 5.98 ГБ (6 420 305 920 байт)
   Стать Автором раздачи
   
Цитата

Вернуться в Зарубежное кино (DVD)

Кто сейчас на конференции

Сейчас эту тему просматривают: нет зарегистрированных пользователей и гости: 1