Мачеха / Stepmom (1998) BDRip 1080p от ExKinoRay | D, P2, A

 Статистика раздачи 
Размер: 12.15 ГБ   |  Зарегистрирован: 14 мар 2019, 13:51   |   .torrent скачан: 73 раз
Сидеров: 18  [ 0 байт/сек ]     Личеров: 10  [ 0 байт/сек ]  
  
Аватара пользователя
 
Раздал: 5.31 ТБ
Скачал: 188.18 ГБ
Ратио: 28.877
Сообщения: 225502
Стаж: 2 года 1 месяц 30 дней

Информация о фильме
Название: Мачеха
Оригинальное название: Stepmom
Год выхода: 1998
Жанр: Драма, комедия
Режиссер: Крис Коламбус
В ролях: Джулия Робертс, Сьюзен Сарандон, Эд Харрис, Джена Мэлоун, Лиам Эйкен, Линн Уитфилд, Даррел Ларсон, Мэри Луиза Уилсон, Андре Б. Блейк, Джек Эгил

О фильме:
Семейные узы настолько тесно сближают людей, что рано или поздно кто-то оказывается лишним. И в жизни двенадцатилетней Анны и шестилетнего Бена появилась Изабель, любовница их разведенного отца. Она делает все возможное, чтобы завоевать любовь чужих детей. Но Джеки, их настоящая мать, использует весь свой авторитет и влияние, чтобы этого не допустить. Голос крови оказывается сильнее доброты и обаяния Изабель. Она хотела стать для Анны и Бена искренним другом, но так и осталась мачехой. Однако в тот момент, когда Джеки добилась желаемого, неожиданно выясняется, что она смертельно больна. И вот Изабель, с которой заботливая мать не мыслила жизни своих детей, оказывается тем единственным человеком, без которого их жизнь немыслима…



Страна: США
Студия: 1492 Pictures, Columbia Pictures
Продолжительность: 02:02:22
Перевод: Дублированный, профессиональный двухголосый, авторский

Файл
Кодек: x264
Качество: BDRip 1080p
Видео: MPEG-4 AVC, 11.8 Mбит/с, 1920x798
Аудио №1: Русский | AC3, 2 ch, 192 Кбит/с - Дублированный (Невафильм)
Аудио №2: Русский | AC3, 6 ch, 448 Кбит/с - Профессиональный двухголосый
Аудио №3: Русский | AC3, 2 ch, 192 Кбит/с - Авторский (Живов)
Аудио №4: Английский | DTS, 6 ch, 1510 Кбит/с | Оригинал
Субтитры: Русские, английские



Формат : Matroska
Версия формата : Version 2
Размер файла : 12,2 Гбайт
Продолжительность : 2 ч. 0 м.
Общий поток : 14,5 Мбит/сек
Название фильма : Stepmom.1998.1080p.BluRay.x264.by.zzZGVvv
Дата кодирования : UTC 2019-03-14 10:06:51
Программа кодирования : mkvmerge v5.8.0 ('No Sleep / Pillow') built on Sep 2 2012 15:37:04
Библиотека кодирования : libebml v1.2.3 + libmatroska v1.3.0
Attachment : Yes

Видео
Идентификатор : 1
Формат : AVC
Формат/Информация : Advanced Video Codec
Профиль формата : High@L4.1
Параметр CABAC формата : Да
Параметр ReFrames формата : 5 кадров
Идентификатор кодека : V_MPEG4/ISO/AVC
Продолжительность : 2 ч. 0 м.
Битрейт : 11,8 Мбит/сек
Ширина : 1920 пикселей
Высота : 798 пикселей
Соотношение сторон : 2,40:1
Режим частоты кадров : Постоянный
Частота кадров : 23,976 кадра/сек
Цветовое пространство : YUV
Субдискретизация насыщенности : 4:2:0
Битовая глубина : 8 бит
Тип развёртки : Прогрессивная
Бит/(Пиксели*Кадры) : 0.322
Размер потока : 9,94 Гбайт (82%)
Заголовок : Stepmom.1998
Библиотека кодирования : x264 core 157 r2935 545de2f
Настройки программы : cabac=1 / ref=5 / deblock=1:-3:-3 / analyse=0x3:0x133 / me=umh / subme=10 / psy=1 / psy_rd=1.00:0.00 / mixed_ref=1 / me_range=32 / chroma_me=1 / trellis=2 / 8x8dct=1 / cqm=0 / deadzone=21,11 / fast_pskip=0 / chroma_qp_offset=-2 / threads=24 / lookahead_threads=6 / sliced_threads=0 / nr=0 / decimate=0 / interlaced=0 / bluray_compat=0 / constrained_intra=0 / bframes=16 / b_pyramid=2 / b_adapt=2 / b_bias=0 / direct=3 / weightb=1 / open_gop=0 / weightp=2 / keyint=240 / keyint_min=24 / scenecut=40 / intra_refresh=0 / rc_lookahead=60 / rc=crf / mbtree=0 / crf=18.0 / qcomp=0.60 / qpmin=0 / qpmax=69 / qpstep=4 / vbv_maxrate=62500 / vbv_bufsize=78125 / crf_max=0.0 / nal_hrd=none / filler=0 / ip_ratio=1.40 / pb_ratio=1.30 / aq=2:1.00
Язык : English
Default : Да
Forced : Нет
Основные цвета : BT.709
Характеристики трансфера : BT.709
Коэффициенты матрицы : BT.709

Аудио #1
Идентификатор : 2
Формат : AC-3
Формат/Информация : Audio Coding 3
Расширение режима : CM (complete main)
Параметр Endianness формата : Big
Идентификатор кодека : A_AC3
Продолжительность : 2 ч. 0 м.
Вид битрейта : Постоянный
Битрейт : 192 Кбит/сек
Каналы : 2 канала
Расположение каналов : Front: L R
Частота : 48,0 КГц
Битовая глубина : 16 бит
Метод сжатия : С потерями
Размер потока : 165 Мбайт (1%)
Заголовок : Dub
Язык : Russian
Default : Да
Forced : Нет

Аудио #2
Идентификатор : 3
Формат : AC-3
Формат/Информация : Audio Coding 3
Расширение режима : CM (complete main)
Параметр Endianness формата : Big
Идентификатор кодека : A_AC3
Продолжительность : 2 ч. 0 м.
Вид битрейта : Постоянный
Битрейт : 448 Кбит/сек
Каналы : 6 каналов
Расположение каналов : Front: L C R, Side: L R, LFE
Частота : 48,0 КГц
Битовая глубина : 16 бит
Метод сжатия : С потерями
Размер потока : 386 Мбайт (3%)
Заголовок : DVO
Язык : Russian
Default : Нет
Forced : Нет

Аудио #3
Идентификатор : 4
Формат : AC-3
Формат/Информация : Audio Coding 3
Расширение режима : CM (complete main)
Параметр Endianness формата : Big
Идентификатор кодека : A_AC3
Продолжительность : 2 ч. 0 м.
Вид битрейта : Постоянный
Битрейт : 192 Кбит/сек
Каналы : 2 канала
Расположение каналов : Front: L R
Частота : 48,0 КГц
Битовая глубина : 16 бит
Метод сжатия : С потерями
Размер потока : 165 Мбайт (1%)
Заголовок : AVO (Живов)
Язык : Russian
Default : Нет
Forced : Нет

Аудио #4
Идентификатор : 5
Формат : DTS
Формат/Информация : Digital Theater Systems
Режим : 16
Параметр Endianness формата : Big
Идентификатор кодека : A_DTS
Продолжительность : 2 ч. 0 м.
Вид битрейта : Постоянный
Битрейт : 1509 Кбит/сек
Каналы : 6 каналов
Расположение каналов : Front: L C R, Side: L R, LFE
Частота : 48,0 КГц
Битовая глубина : 16 бит
Метод сжатия : С потерями
Размер потока : 1,27 Гбайт (10%)
Язык : English
Default : Нет
Forced : Нет

Текст #1
Идентификатор : 6
Формат : UTF-8
Идентификатор кодека : S_TEXT/UTF8
Идентификатор кодека/Информация : UTF-8 Plain Text
Язык : Russian
Default : Нет
Forced : Нет

Текст #2
Идентификатор : 7
Формат : UTF-8
Идентификатор кодека : S_TEXT/UTF8
Идентификатор кодека/Информация : UTF-8 Plain Text
Язык : English
Default : Нет
Forced : Нет

Меню
00:00:00.000 : :Chapter 1
00:10:00.504 : :Chapter 2
00:20:00.979 : :Chapter 3
00:30:02.997 : :Chapter 4
00:40:03.138 : :Chapter 5
00:50:03.238 : :Chapter 6
01:00:03.671 : :Chapter 7
01:10:04.396 : :Chapter 8
01:20:05.038 : :Chapter 9
01:30:06.639 : :Chapter 10
01:40:06.321 : :Chapter 11
01:50:06.671 : :Chapter 12
02:00:07.980 : :Chapter 13



Релиз от:
Не забывайте говорить Спасибо. Не уходите с раздачи!   
Торрент: Зарегистрирован [14 мар 2019, 13:51] Для скачивания .torrent
необходима регистрация
Или скачать с помощью
MediaGet
Статус:
Проверен
 
.torrent скачан: 73 раз
Хэш: c7d354ba13f511f62a8dfe39ff21619a5dd8bcfa
Размер: 12.15 ГБ (13 051 324 098 байт)
   Стать Автором раздачи
   
Цитата
  • Похожие торренты
    Ответы
    Просмотры
    Последнее сообщение

Вернуться в Зарубежное кино (HD Video)

Кто сейчас на конференции

Сейчас эту тему просматривают: нет зарегистрированных пользователей и гости: 1