Водный мир / Waterworld (1995) BDRip 1080р | P, A | The Ulysses Cut

 Статистика раздачи 
Размер: 20.21 ГБ   |  Зарегистрирован: 14 мар 2019, 14:33   |   .torrent скачан: 161 раз
Сидеров: 28  [ 0 байт/сек ]     Личеров: 16  [ 0 байт/сек ]  
  
Аватара пользователя
Я на сайте
 
Раздал: 4.36 ТБ
Скачал: 137.99 ГБ
Ратио: 32.328
Сообщения: 212983
Стаж: 1 год 11 месяцев 29 дней

Название: Водный мир
Оригинальное название: Waterworld
Год выхода: 1995
Страна: США
Студия: Universal Pictures, Gordon Company, Davis Entertainment
Продолжительность: 02:57:12
Жанр: фантастика, боевик, приключения

Режиссер: Кевин Рейнольдс
В ролях: Кевин Костнер, Деннис Хоппер, Джинн Трипплхорн, Тина Мажорино, Майкл Джитер, Джек Блэк, Ким Коутс, Чайм Джирафи, Рик Авилес, Р.Д. Колл, ...

Перевод:
- Профессиональный (многоголосный, закадровый) СВ Студия
- Профессиональный (многоголосный, закадровый) студия «Кравец»
- Профессиональный (многоголосный, закадровый) Киномания
- Авторский (одноголосый, закадровый) Живов Юрий Викторович
- Авторский (одноголосый, закадровый) Гаврилов Андрей Юрьевич
- Авторский (одноголосый, закадровый) Немахов Юрий Геннадьевич
- Субтитры

О фильме: В далеком будущем полярные снега растаяли, покрыв всю Землю водой. Авторы погружают нас в фантастический мир немногочисленных людей, живущих на воде, где самым дорогим являются пресная вода, земля, еда, сигареты и т. п.
«Курильщики» убивают, грабят, обращают в рабство — используют двигатели внутреннего сгорания. Все остальные пытаются выжить, кто как может, а Кевин Костнер плавает сам по себе на своей фантастической лодке, но объединяет их всех одно — все они ищут остров…



Кодек: x264
Качество: BDRip 1080p
Видео: 1920x1036, 13000 kbps, 23,976 fps
Аудио #1: AC-3, 6 ch, 448 kbps (Rus) - MVO СВ Студия
Аудио #2: AC-3, 6 ch, 448 kbps (Rus) - MVO С.Р.И / Кравец
Аудио #3: AC-3, 6 ch, 384 kbps (Rus) - MVO Киномания
Аудио #4: AC-3, 6 ch, 448 kbps (Rus) - AVO Живов Юрий Викторович
Аудио #5: AC-3, 6 ch, 448 kbps (Rus) - AVO Гаврилов Андрей Юрьевич
Аудио #6: AC-3, 6 ch, 384 kbps (Rus) - AVO Немахов Юрий Геннадьевич (Yuriy Demigod)
Аудио #7: DTS, 6 ch, 768 kbps (Eng)
Субтитры: русские, английские
Спасибо за исходник

Дорога СВ Студия доступна благодаря проекту Озвучивание. Спонсоры: BERILL, GRONHOLD, kinoved72, Serenkiy, krat11, stimco, tambov68, n1ko1as, DParfenov, budulay, fess_master, mvch73, Romanych_777, maksnew, donpedro70, Superbizho, goriathid, alexeycezar, SnowSquirrel, uncasual, bsp83, lokis83, igrok2012, Asmodai, Holms, aleks0614, Jonnikl, OLURI, Niflung, balshik, Alexz, twiceaday, viryzhkov, foxGmalder, irrlicht, zlodei24, hdrmv12, thunder, sn68bel, gelom, VitVil, ikstu, boris425, MamonTSan, Mister_Yarik, kimi, Sini, bma72, unitedbits.
Каст СВ Студии: Даниил Эльдаров, Артем Маликов, Наталья Грачёва, Анастасия Садовская, Александр Груздев, Александр Хошабаев, Михаил Белякович.

Дорога Ю.Живова доступна благодаря следующим спонсорам: Pavlik-Povar, rushat, Semenych, C_A_H_E_K, Gross1978, ALEX150379, chontvari, fly32, PiratGary1980, Semvlk, Партизан, barvinok13, Django T120, vovyanskiy, AndreyTula, Dragtwin, Cyberclean, Amor7, instructor1984, Danil6300, dir, Volshebnik, river, Iceman, -Holo-, GRONHOLD, tambov68, chernila, Valen, Petro0999, ANISKIN50, User, xaxara, Letyoha3.

В дорогах Гаврилова и Немахова присутствуют вставки на расширенные места из Живова. В многоголосках вставки из СВ Студии.
Сборка дорог Живова и Гаврилова - Spiellberg

x264 [info]: frame I:1429 Avg QP:21.87 size:215864
x264 [info]: frame P:56935 Avg QP:24.52 size:110897
x264 [info]: frame B:196564 Avg QP:26.43 size: 54160
x264 [info]: consecutive B-frames: 1.3% 1.9% 6.7% 36.1% 18.4% 27.9% 4.2% 1.7% 0.7% 0.4% 0.2% 0.1% 0.1% 0.1% 0.1%

Общее
Уникальный идентификатор : 192670068086951914973531661640706294178 (0x90F2E7C51EFE6F1B879ECA56185401A2)
Полное имя : Водный мир (Waterworld) 1995 BDRip 1080p.mkv
Формат : Matroska
Версия формата : Version 2
Размер файла : 20,2 Гбайт
Продолжительность : 2 ч. 57 м.
Общий поток : 16,3 Мбит/сек
Дата кодирования : UTC 2019-03-14 10:02:37
Программа кодирования : mkvmerge v4.0.0 ('The Stars were mine') сборка от Jun 6 2010 16:18:42
Библиотека кодирования : libebml v1.0.0 + libmatroska v1.0.0

Видео
Идентификатор : 1
Формат : AVC
Формат/Информация : Advanced Video Codec
Профиль формата : High@L4.1
Параметр CABAC формата : Да
Параметр ReFrames формата : 4 кадра
Идентификатор кодека : V_MPEG4/ISO/AVC
Продолжительность : 2 ч. 57 м.
Битрейт : 13,0 Мбит/сек
Ширина : 1920 пикселей
Высота : 1036 пикселей
Соотношение сторон : 1,85:1
Режим частоты кадров : Постоянный
Частота кадров : 23,976 (24000/1001) кадра/сек
Цветовое пространство : YUV
Субдискретизация насыщенности : 4:2:0
Битовая глубина : 8 бит
Тип развёртки : Прогрессивная
Бит/(Пиксели*Кадры) : 0.273
Размер потока : 15,7 Гбайт (78%)
Библиотека кодирования : x264 core 146 r2538 121396c
Настройки программы : cabac=1 / ref=4 / deblock=1:-2:-2 / analyse=0x3:0x133 / me=umh / subme=11 / psy=1 / psy_rd=1.00:0.00 / mixed_ref=1 / me_range=32 / chroma_me=1 / trellis=2 / 8x8dct=1 / cqm=0 / deadzone=21,11 / fast_pskip=0 / chroma_qp_offset=-2 / threads=12 / lookahead_threads=2 / sliced_threads=0 / nr=0 / decimate=0 / interlaced=0 / bluray_compat=0 / constrained_intra=0 / bframes=14 / b_pyramid=2 / b_adapt=2 / b_bias=0 / direct=3 / weightb=1 / open_gop=0 / weightp=2 / keyint=240 / keyint_min=23 / scenecut=40 / intra_refresh=0 / rc=2pass / mbtree=0 / bitrate=13000 / ratetol=1.0 / qcomp=0.60 / qpmin=0 / qpmax=69 / qpstep=4 / cplxblur=20.0 / qblur=0.5 / ip_ratio=1.40 / pb_ratio=1.30 / aq=2:0.80
Язык : English
Default : Нет
Forced : Нет

Аудио #1
Идентификатор : 2
Формат : AC-3
Формат/Информация : Audio Coding 3
Расширение режима : CM (complete main)
Параметр Endianness формата : Big
Идентификатор кодека : A_AC3
Продолжительность : 2 ч. 57 м.
Вид битрейта : Постоянный
Битрейт : 448 Кбит/сек
Каналы : 6 каналов
Расположение каналов : Front: L C R, Side: L R, LFE
Частота : 48,0 КГц
Частота кадров : 31,250 кадров/сек (1536 spf)
Метод сжатия : С потерями
Размер потока : 568 Мбайт (3%)
Заголовок : MVO СВ Студия
Язык : Russian
Default : Нет
Forced : Нет

Аудио #2
Идентификатор : 3
Формат : AC-3
Формат/Информация : Audio Coding 3
Расширение режима : CM (complete main)
Параметр Endianness формата : Big
Идентификатор кодека : A_AC3
Продолжительность : 2 ч. 57 м.
Вид битрейта : Постоянный
Битрейт : 448 Кбит/сек
Каналы : 6 каналов
Расположение каналов : Front: L C R, Side: L R, LFE
Частота : 48,0 КГц
Частота кадров : 31,250 кадров/сек (1536 spf)
Метод сжатия : С потерями
Размер потока : 568 Мбайт (3%)
Заголовок : MVO С.Р.И / Кравец
Язык : Russian
Default : Нет
Forced : Нет

Аудио #3
Идентификатор : 4
Формат : AC-3
Формат/Информация : Audio Coding 3
Расширение режима : CM (complete main)
Параметр Endianness формата : Big
Идентификатор кодека : A_AC3
Продолжительность : 2 ч. 57 м.
Вид битрейта : Постоянный
Битрейт : 384 Кбит/сек
Каналы : 6 каналов
Расположение каналов : Front: L C R, Side: L R, LFE
Частота : 48,0 КГц
Частота кадров : 31,250 кадров/сек (1536 spf)
Метод сжатия : С потерями
Размер потока : 487 Мбайт (2%)
Заголовок : MVO Киномания
Язык : Russian
Default : Нет
Forced : Нет

Аудио #4
Идентификатор : 5
Формат : AC-3
Формат/Информация : Audio Coding 3
Расширение режима : CM (complete main)
Параметр Endianness формата : Big
Идентификатор кодека : A_AC3
Продолжительность : 2 ч. 57 м.
Вид битрейта : Постоянный
Битрейт : 448 Кбит/сек
Каналы : 6 каналов
Расположение каналов : Front: L C R, Side: L R, LFE
Частота : 48,0 КГц
Частота кадров : 31,250 кадров/сек (1536 spf)
Метод сжатия : С потерями
Размер потока : 568 Мбайт (3%)
Заголовок : AVO Живов Юрий Викторович
Язык : Russian
Default : Нет
Forced : Нет

Аудио #5
Идентификатор : 6
Формат : AC-3
Формат/Информация : Audio Coding 3
Расширение режима : CM (complete main)
Параметр Endianness формата : Big
Идентификатор кодека : A_AC3
Продолжительность : 2 ч. 57 м.
Вид битрейта : Постоянный
Битрейт : 448 Кбит/сек
Каналы : 6 каналов
Расположение каналов : Front: L C R, Side: L R, LFE
Частота : 48,0 КГц
Частота кадров : 31,250 кадров/сек (1536 spf)
Метод сжатия : С потерями
Размер потока : 568 Мбайт (3%)
Заголовок : AVO Гаврилов Андрей Юрьевич
Язык : Russian
Default : Нет
Forced : Нет

Аудио #6
Идентификатор : 7
Формат : AC-3
Формат/Информация : Audio Coding 3
Расширение режима : CM (complete main)
Параметр Endianness формата : Big
Идентификатор кодека : A_AC3
Продолжительность : 2 ч. 57 м.
Вид битрейта : Постоянный
Битрейт : 384 Кбит/сек
Каналы : 6 каналов
Расположение каналов : Front: L C R, Side: L R, LFE
Частота : 48,0 КГц
Частота кадров : 31,250 кадров/сек (1536 spf)
Метод сжатия : С потерями
Размер потока : 487 Мбайт (2%)
Заголовок : AVO Немахов Юрий Геннадьевич (Yuriy Demigod)
Язык : Russian
Default : Нет
Forced : Нет

Аудио #7
Идентификатор : 8
Формат : DTS
Формат/Информация : Digital Theater Systems
Режим : 16
Параметр Endianness формата : Big
Идентификатор кодека : A_DTS
Продолжительность : 2 ч. 57 м.
Вид битрейта : Постоянный
Битрейт : 768 Кбит/сек
Каналы : 6 каналов
Расположение каналов : Front: L C R, Side: L R, LFE
Частота : 48,0 КГц
Частота кадров : 93,750 кадра/сек (512 spf)
Битовая глубина : 24 бит
Метод сжатия : С потерями
Задержка видео : 11 мс.
Размер потока : 973 Мбайт (5%)
Язык : English
Default : Нет
Forced : Нет

Текст #1
Идентификатор : 9
Формат : UTF-8
Идентификатор кодека : S_TEXT/UTF8
Идентификатор кодека/Информация : UTF-8 Plain Text
Заголовок : СВ Студия
Язык : Russian
Default : Нет
Forced : Нет

Текст #2
Идентификатор : 10
Формат : UTF-8
Идентификатор кодека : S_TEXT/UTF8
Идентификатор кодека/Информация : UTF-8 Plain Text
Язык : Russian
Default : Нет
Forced : Нет

Текст #3
Идентификатор : 11
Формат : UTF-8
Идентификатор кодека : S_TEXT/UTF8
Идентификатор кодека/Информация : UTF-8 Plain Text
Язык : English
Default : Нет
Forced : Нет

Текст #4
Идентификатор : 12
Формат : UTF-8
Идентификатор кодека : S_TEXT/UTF8
Идентификатор кодека/Информация : UTF-8 Plain Text
Заголовок : SDH
Язык : English
Default : Нет
Forced : Нет

Меню
00:00:00.000 : :00:00:00.000
00:09:56.137 : :00:09:56.137
00:23:40.336 : :00:23:40.336
00:35:22.037 : :00:35:22.037
00:50:23.312 : :00:50:23.312
01:04:59.604 : :01:04:59.604
01:27:51.516 : :01:27:51.516
01:41:14.819 : :01:41:14.819
02:05:47.123 : :02:05:47.123
02:15:10.853 : :02:15:10.853
02:25:46.905 : :02:25:46.905
02:37:42.453 : :02:37:42.453

Не забывайте говорить Спасибо. Не уходите с раздачи!   
Торрент: Зарегистрирован [14 мар 2019, 14:33] Для скачивания .torrent
необходима регистрация
Или скачать с помощью
MediaGet
Статус:
Проверен
 
.torrent скачан: 161 раз
Хэш: faa6cd3ef0bf5ff8db4835357ba0f404ddace501
Размер: 20.21 ГБ (21 697 200 543 байт)
   Стать Автором раздачи
   
Цитата
  • Похожие торренты
    Ответы
    Просмотры
    Последнее сообщение

Вернуться в Зарубежное кино (HD Video)

Кто сейчас на конференции

Сейчас эту тему просматривают: нет зарегистрированных пользователей и гости: 1