Маша и Медведь: Вокруг света за один час (2019) WEB-DLRip [H.264/1080p-LQ] (Серия 77)

 Статистика раздачи 
Размер: 282.24 МБ   |  Зарегистрирован: 12 мар 2019, 10:02   |   .torrent скачан: 11 раз
Сидеров: 6  [ 0 байт/сек ]     Личеров: 0  [ 0 байт/сек ]  
  
Аватара пользователя
 
Раздал: 6.13 ТБ
Скачал: 195.34 ГБ
Ратио: 32.120
Сообщения: 238478
Стаж: 2 года 4 месяца 27 дней

Маша и Медведь: Вокруг света за один час (2019) WEB-DLRip [H.264/1080p-LQ] (Серия 77)

Производство: Россия / Студия "Анимаккорд"
Жанр: Детский, комедия, семейный

Режиссер: Олег Кузовков, Олег Ужинов, Денис Червяцов

Описание:
Мишка готовится отправиться в кругосветное путешествие, но в последний момент случайность заставляет его поволноваться. Маша же знает лучший способ подготовки и делится им с Мишкой.


Возраст: 0+ (для любой зрительской аудитории)

Продолжительность: 00:07:25
Качество видео: WEB-DLRip
Субтитры: Отсутствуют

Видео: AVC/H.264, 1920x1080 (16:9), ~5120 Kbps
Аудио: AC3, 2 ch, 192 Kbps
Код: Выделить всё
Общее
Уникальный идентификатор                 : 188265490035883952399569496943982674426 (0x8DA29D4E43EE6A79BA700BB8599E01FA)
Полное имя                               : G:\Маша и Медведь (Вокруг света за один час).mkv
Формат                                   : Matroska
Версия формата                           : Version 2
Размер файла                             : 282 Мбайт
Продолжительность                        : 7 м. 25 с.
Общий поток                              : 5314 Кбит/сек
Дата кодирования                         : UTC 2019-03-09 19:01:54
Программа кодирования                    : mkvmerge v7.8.0 ('River Man') 32bit built on Apr  3 2015 12:11:22
Библиотека кодирования                   : libebml v1.3.1 + libmatroska v1.4.2

Видео
Идентификатор                            : 1
Формат                                   : AVC
Формат/Информация                        : Advanced Video Codec
Профиль формата                          : High@L4
Настройки формата                        : CABAC / 4 Ref Frames
Параметр CABAC формата                   : Да
Параметр RefFrames формата               : 4 кадра
Идентификатор кодека                     : V_MPEG4/ISO/AVC
Продолжительность                        : 7 м. 25 с.
Битрейт                                  : 5120 Кбит/сек
Ширина                                   : 1920 пикселей
Высота                                   : 1080 пикселей
Соотношение сторон                       : 16:9
Режим частоты кадров                     : Постоянный
Частота кадров                           : 25,000 кадров/сек
Цветовое пространство                    : YUV
Субдискретизация насыщенности            : 4:2:0
Битовая глубина                          : 8 бит
Тип развёртки                            : Прогрессивная
Бит/(Пиксели*Кадры)                      : 0.099
Размер потока                            : 266 Мбайт (94%)
Библиотека кодирования                   : x264 core 148
Настройки программы                      : cabac=1 / ref=3 / deblock=1:0:0 / analyse=0x3:0x113 / me=hex / subme=7 / psy=1 / psy_rd=1.00:0.00 / mixed_ref=1 / me_range=16 / chroma_me=1 / trellis=1 / 8x8dct=1 / cqm=0 / deadzone=21,11 / fast_pskip=1 / chroma_qp_offset=-2 / threads=34 / lookahead_threads=5 / sliced_threads=0 / nr=0 / decimate=1 / interlaced=0 / bluray_compat=0 / constrained_intra=0 / bframes=6 / b_pyramid=2 / b_adapt=1 / b_bias=0 / direct=1 / weightb=1 / open_gop=0 / weightp=2 / keyint=50 / keyint_min=26 / scenecut=0 / intra_refresh=0 / rc_lookahead=40 / rc=2pass / mbtree=1 / bitrate=5120 / ratetol=1.0 / qcomp=0.60 / qpmin=0 / qpmax=69 / qpstep=4 / cplxblur=20.0 / qblur=0.5 / vbv_maxrate=7680 / vbv_bufsize=20480 / nal_hrd=none / filler=0 / ip_ratio=1.40 / aq=1:1.00
Default                                  : Да
Forced                                   : Нет

Аудио
Идентификатор                            : 2
Формат                                   : AC-3
Формат/Информация                        : Audio Coding 3
Коммерческое название                    : Dolby Digital
Идентификатор кодека                     : A_AC3
Продолжительность                        : 7 м. 25 с.
Вид битрейта                             : Постоянный
Битрейт                                  : 192 Кбит/сек
Каналы                                   : 2 канала
Channel layout                           : L R
Частота                                  : 48,0 КГц
Частота кадров                           : 31,250 кадров/сек (1536 SPF)
Битовая глубина                          : 16 бит
Метод сжатия                             : С потерями
Размер потока                            : 10,2 Мбайт (4%)
ServiceKind/String                       : Complete Main
Default                                  : Да
Forced                                   : Нет

Скриншоты:




Время раздачи: 24/7 (круглосуточно) (до появления первых 3-5 скачавших)
Не забывайте говорить Спасибо. Не уходите с раздачи!   
Торрент: Зарегистрирован [12 мар 2019, 10:02]
Статус:
Проверен
 
.torrent скачан: 11 раз
Хэш: 750836178bf6e204da7a5c7975e976c3a32ab18c
Размер: 282.24 МБ (295 948 337 байт)
   Стать Автором раздачи
   
Цитата
  • Похожие торренты
    Ответы
    Просмотры
    Последнее сообщение

Вернуться в Полнометражные

Кто сейчас на конференции

Сейчас эту тему просматривают: нет зарегистрированных пользователей и гости: 1