PBS Nature: Тайная жизнь леопарда / Revealing the Leopard (2010) BDRemux [H.264/1080i]

 Статистика раздачи 
Размер: 12.68 ГБ   |  Зарегистрирован: 17 фев 2019, 00:12   |   .torrent скачан: 0 раз
Сидеров: 4  [ 0 байт/сек ]     Личеров: 1  [ 0 байт/сек ]  
  
Аватара пользователя
Я на сайте
 
Раздал: 4.36 ТБ
Скачал: 137.99 ГБ
Ратио: 32.328
Сообщения: 212983
Стаж: 1 год 11 месяцев 29 дней

Тайная жизнь леопарда / Revealing the Leopard (2010) BDRemux [H.264/1080i]

Производство: США, Rubin Tarrant Productions, Public Broadcasting Service (PBS)
Жанр: Документальный, природа, флора, фауна

Режиссер: Марк Флетчер
Участники: Джим Конрад

Описание:
Леопарды являются самыми умными, самыми опасными и, до недавнего времени, одной из наименее изученных пород семейства кошачьих. Они охотятся от Южной Африки до Сибири, от Аравии до Шри-Ланки и являются наиболее распространенным видом хищников. Леопард - это кошка, которая гуляет сама по себе, оставаясь невидимой и скрытой. Леопарды красивые убийцы, которые живут в тени. Этот фильм будет накапливать данные и составлять психологический портрет этого необыкновенно хитрого, опасного, умного и, бесспорно, одного из самых красивых и грациозных хищников на Земле.

https://www.imdb.com/title/tt1762887/?ref_=plg_rt_1

Релиз от: igorek77
Продолжительность: 00:53:01
Качество видео: BDRemux
Перевод: Одноголосый закадровый, профессиональный (Омикрон)
Субтитры: Английские

Видео: AVC/H.264, 1920x1080, ~34,1 Mbps
Аудио#1: AC3, 2 ch, 384 Kbps | Русский
Аудио#2: AC3, 2 ch, 384 Kbps | Английский
Код: Выделить всё
Общее
Уникальный идентификатор                 : 314122010148656248154828005996065908344 (0xEC51B2D46951D9E9DDFAF680908EE678)
Полное имя                               : F:\КИНО\PBS.Nature-Revealing.the.Leopard.2010.H264.Blu-ray.Remux(1080i)_igorek77.mkv
Формат                                   : Matroska
Версия формата                           : Version 4
Размер файла                             : 12,7 Гбайт
Продолжительность                        : 53 м. 1 с.
Общий поток                              : 34,2 Мбит/сек
Название фильма                          : Тайная жизнь леопарда  / 2010 (igorek77)
Дата кодирования                         : UTC 2019-02-16 15:34:16
Программа кодирования                    : mkvmerge v30.1.0 ('Forever And More') 64-bit
Библиотека кодирования                   : libebml v1.3.6 + libmatroska v1.4.9
Обложка                                  : Yes
Attachments                              : cover

Видео
Идентификатор                            : 1
Формат                                   : AVC
Формат/Информация                        : Advanced Video Codec
Профиль формата                          : [url=http://nnmclub.to/mailto:High@L4.1]High@L4.1[/url]
Настройки формата                        : CABAC / 4 Ref Frames
Параметр CABAC формата                   : Да
Параметр RefFrames формата               : 4 кадра
Идентификатор кодека                     : V_MPEG4/ISO/AVC
Продолжительность                        : 53 м. 1 с.
Вид битрейта                             : Постоянный
Битрейт                                  : 34,1 Мбит/сек
Ширина                                   : 1920 пикселей
Высота                                   : 1080 пикселей
Соотношение сторон                       : 16:9
Режим частоты кадров                     : Переменный
Частота кадров                           : 59,940 (60000/1001) кадров/сек
Частота кадров в оригинале               : 29,970 (30000/1001) кадров/сек
Стандарт вещания                         : NTSC
Цветовое пространство                    : YUV
Субдискретизация насыщенности            : 4:2:0
Битовая глубина                          : 8 бит
Тип развёртки                            : Чересстрочная
Метод сохранения типа развёртки          : Раздельные поля
Порядок развёртки                        : Верхнее поле первое
Бит/(Пиксели*Кадры)                      : 0.274
Размер потока                            : 12,4 Гбайт (98%)
Default                                  : Да
Forced                                   : Нет
Цветовой диапазон                        : Limited
Основные цвета                           : BT.709
Характеристики трансфера                 : BT.709
Коэффициенты матрицы                     : BT.709

Аудио #1
Идентификатор                            : 2
Формат                                   : AC-3
Формат/Информация                        : Audio Coding 3
Коммерческое название                    : Dolby Digital
Идентификатор кодека                     : A_AC3
Продолжительность                        : 53 м. 1 с.
Вид битрейта                             : Постоянный
Битрейт                                  : 384 Кбит/сек
Каналы                                   : 2 канала
Channel layout                           : L R
Частота                                  : 48,0 КГц
Частота кадров                           : 31,250 кадров/сек (1536 SPF)
Битовая глубина                          : 16 бит
Метод сжатия                             : С потерями
Размер потока                            : 146 Мбайт (1%)
Язык                                     : Russian
ServiceKind/String                       : Complete Main
Default                                  : Да
Forced                                   : Нет

Аудио #2
Идентификатор                            : 3
Формат                                   : AC-3
Формат/Информация                        : Audio Coding 3
Коммерческое название                    : Dolby Digital
Идентификатор кодека                     : A_AC3
Продолжительность                        : 53 м. 1 с.
Вид битрейта                             : Постоянный
Битрейт                                  : 384 Кбит/сек
Каналы                                   : 2 канала
Channel layout                           : L R
Частота                                  : 48,0 КГц
Частота кадров                           : 31,250 кадров/сек (1536 SPF)
Битовая глубина                          : 16 бит
Метод сжатия                             : С потерями
Размер потока                            : 146 Мбайт (1%)
Язык                                     : English
ServiceKind/String                       : Complete Main
Default                                  : Нет
Forced                                   : Нет

Текст
Идентификатор                            : 4
Формат                                   : PGS
Режим смешивания                         : zlib
Идентификатор кодека                     : S_HDMV/PGS
Идентификатор кодека/Информация          : Picture based subtitle format used on BDs/HD-DVDs
Продолжительность                        : 52 м. 42 с.
Битрейт                                  : 23,5 Кбит/сек
ElementCount                             : 1074
Размер потока                            : 8,87 Мбайт (0%)
Язык                                     : English
Default                                  : Нет
Forced                                   : Нет

Меню
00:00:00.000                             : en:(01)00:00:00:000
00:08:21.300                             : en:(02)00:08:21:300
00:17:12.965                             : en:(03)00:17:12:965
00:26:02.961                             : en:(04)00:26:02:961
00:33:43.021                             : en:(05)00:33:43:021
00:44:42.012                             : en:(06)00:44:42:012
00:52:12.329                             : en:(07)00:52:12:329
00:53:00.510                             : en:(08)00:53:00:510

Скриншоты:



Время раздачи: с 18:00 до 23:00 (до появления первых 3-5 скачавших)
Не забывайте говорить Спасибо. Не уходите с раздачи!   
Торрент: Зарегистрирован [17 фев 2019, 00:12] Для скачивания .torrent
необходима регистрация
Или скачать с помощью
MediaGet
Статус:
Проверен
 
.torrent скачан: 0 раз
Хэш: 2644f727e16deb7ba336b225aa1a1b3e571671fd
Размер: 12.68 ГБ (13 617 147 628 байт)
   Стать Автором раздачи
   
Цитата

Вернуться в Public Broadcasting Service (PBS)

Кто сейчас на конференции

Сейчас эту тему просматривают: нет зарегистрированных пользователей и гости: 1