Дилемма Фейсбук / The Facebook Dilemma (2018) HDTVRip [H.264/720p-LQ]

 Статистика раздачи 
Размер: 595.74 МБ   |  Зарегистрирован: 14 фев 2019, 21:18   |   .torrent скачан: 0 раз
Сидеров: 3  [ 0 байт/сек ]     Личеров: 1  [ 0 байт/сек ]  
  
Аватара пользователя
 
Раздал: 4.47 ТБ
Скачал: 176.64 ГБ
Ратио: 25.934
Сообщения: 215100
Стаж: 2 года 3 дня

Дилемма Фейсбук / The Facebook Dilemma (2018) HDTVRip [H.264/720p-LQ]

Производство: США, PBS FRONTLINE
Жанр: Документальный, исследование

Режиссер: Фред Макартур
Участники: Марк Эллиот Цукерберг

Описание:
Этот фильм – ранние предупреждения о влиянии Фейсбук на приватность людей, а также на демократию в США и во всем мире. Десятки оригинальных интервью и редкие кадры показывают, как эта компания столкнулась с обвинениями в нарушениях, превращаясь в беспрецедентную глобальную власть.

Продолжительность: 00:52:43
Качество видео: HDTVRip
Перевод: Одноголосый закадровый, профессиональный
Субтитры: отсутствуют

Видео: AVC/H.264, 1280x720, ~1447 Kbps
Аудио: AAC, 2 ch, 128 Kbps
Код: Выделить всё
Общее
Уникальный идентификатор                 : 51301972468188338417017663805187317365 (0x269866870DD697422BF8C93E16B65E75)
Полное имя                               : F:\КИНО\Дилемма Фейсбука.mkv
Формат                                   : Matroska
Версия формата                           : Version 4
Размер файла                             : 596 Мбайт
Продолжительность                        : 52 м. 48 с.
Общий поток                              : 1577 Кбит/сек
Дата кодирования                         : UTC 2019-02-14 18:05:26
Программа кодирования                    : mkvmerge v31.0.0 ('Dolores In A Shoestand') 64-bit
Библиотека кодирования                   : libebml v1.3.6 + libmatroska v1.4.9

Видео
Идентификатор                            : 1
Формат                                   : AVC
Формат/Информация                        : Advanced Video Codec
Профиль формата                          : [url=http://nnmclub.to/mailto:High@L3.1]High@L3.1[/url]
Настройки формата                        : CABAC / 4 Ref Frames
Параметр CABAC формата                   : Да
Параметр RefFrames формата               : 4 кадра
Идентификатор кодека                     : V_MPEG4/ISO/AVC
Продолжительность                        : 52 м. 48 с.
Битрейт                                  : 1447 Кбит/сек
Ширина                                   : 1280 пикселей
Высота                                   : 720 пикселей
Соотношение сторон                       : 16:9
Режим частоты кадров                     : Постоянный
Частота кадров                           : 25,000 кадров/сек
Цветовое пространство                    : YUV
Субдискретизация насыщенности            : 4:2:0
Битовая глубина                          : 8 бит
Тип развёртки                            : Прогрессивная
Бит/(Пиксели*Кадры)                      : 0.063
Размер потока                            : 547 Мбайт (92%)
Язык                                     : English
Default                                  : Да
Forced                                   : Нет

Аудио
Идентификатор                            : 2
Формат                                   : AAC LC
Формат/Информация                        : Advanced Audio Codec Low Complexity
Идентификатор кодека                     : A_AAC-2
Продолжительность                        : 52 м. 48 с.
Битрейт                                  : 128 Кбит/сек
Каналы                                   : 2 канала
Channel layout                           : L R
Частота                                  : 44,1 КГц
Частота кадров                           : 43,066 кадра/сек (1024 SPF)
Метод сжатия                             : С потерями
Размер потока                            : 48,3 Мбайт (8%)
Язык                                     : English
Default                                  : Да
Forced                                   : Нет

Скриншоты:



Время раздачи: с 18:00 до 23:00 (до появления первых 3-5 скачавших)
Не забывайте говорить Спасибо. Не уходите с раздачи!   
Торрент: Зарегистрирован [14 фев 2019, 21:18] Для скачивания .torrent
необходима регистрация
Или скачать с помощью
MediaGet
Статус:
Проверен
 
.torrent скачан: 0 раз
Хэш: 2d1569ba7193b094205cd5124052b1ccc9239460
Размер: 595.74 МБ (624 682 923 байт)
   Стать Автором раздачи
   
Цитата

Вернуться в Public Broadcasting Service (PBS)

Кто сейчас на конференции

Сейчас эту тему просматривают: нет зарегистрированных пользователей и гости: 1