Как построить колесницу фараона / Building Pharaoh's Chariot (2013) HDTV [H.264/1080i-LQ]

 Статистика раздачи 
Размер: 4.89 ГБ   |  Зарегистрирован: 21 янв 2019, 21:14   |   .torrent скачан: 0 раз
Сидеров: 3  [ 0 байт/сек ]     Личеров: 1  [ 0 байт/сек ]  
  
Аватара пользователя
Я на сайте
 
Раздал: 4.36 ТБ
Скачал: 137.99 ГБ
Ратио: 32.339
Сообщения: 212983
Стаж: 1 год 11 месяцев 29 дней

Как построить колесницу фараона / Building Pharaoh's Chariot (2013) HDTV [H.264/1080i-LQ]

Производство: Великобритания, TV6 Productions, PBS
Жанр: Документальный, история, военное дело

Режиссер: Мартин О'Коллинз

Описание:
Спустя тысячу лет после возведения Великих пирамид, в период Нового Царства в египетской армии произошла технологическая революция - появилась колесница, и военные завоевания позволили создать крупнейшую империю Древнего мира. Каким образом колесница стала ключом к военному успеху египтян? Международная команда экспертов воссоздает копию колесницы в Каире и проводит ее испытания в исторической реконструкции сражения.

https://www.imdb.com/title/tt2520150/?ref_=plg_rt_1

Релиз от: DaVinci (Military)
Продолжительность: 00:52:50
Качество видео: HDTV
Перевод: Двуголосый закадровый, профессиональный (Лексикон)
Субтитры: Английские

Видео: AVC/H.264, 1920x1080, ~12.0 Mbps
Аудио#1: AC3, 2 ch, 192 Kbps | Русский
Аудио#2: AC3, 6 ch, 384 Kbps | Английский
Код: Выделить всё
Общее
Идентификатор                            : 1 (0x1)
Полное имя                               : F:\КИНО\Building.Pharaohs.Chariot.(2013).1080i.HDTV.Rus.Eng-BLUEBIRD.ts
Формат                                   : MPEG-TS
Размер файла                             : 4,89 Гбайт
Продолжительность                        : 52 м. 50 с.
Режим общего битрейта                    : Переменный
Общий поток                              : 13,2 Мбит/сек
Максимальный общий битрейт               : 35,5 Мбит/сек
Ограничение по возрасту                  : TV-PG

Видео
Идентификатор                            : 4113 (0x1011)
Идентификатор меню                       : 1 (0x1)
Формат                                   : MPEG Video
Версия формата                           : Version 2
Профиль формата                          : Main@High
Настройки формата                        : CustomMatrix / BVOP
Параметр BVOP формата                    : Да
Параметр матрицы формата                 : Выборочная
Параметр GOP формата                     : Variable
Структура изображения                    : Frame
Идентификатор кодека                     : 2
Продолжительность                        : 52 м. 50 с.
Вид битрейта                             : Переменный
Битрейт                                  : 12,0 Мбит/сек
Максимальный битрейт                     : 65,0 Мбит/сек
Ширина                                   : 1920 пикселей
Высота                                   : 1080 пикселей
Соотношение сторон                       : 16:9
Частота кадров                           : 29,970 (30000/1001) кадров/сек
Цветовое пространство                    : YUV
Субдискретизация насыщенности            : 4:2:0
Битовая глубина                          : 8 бит
Тип развёртки                            : Чересстрочная
Порядок развёртки                        : Верхнее поле первое
Метод сжатия                             : С потерями
Бит/(Пиксели*Кадры)                      : 0.193
Временной код первого кадра              : 00:00:00;00
Оригинал временного кода                 : Group of pictures header
Размер потока                            : 4,43 Гбайт (91%)

Аудио #1
Идентификатор                            : 4352 (0x1100)
Идентификатор меню                       : 1 (0x1)
Формат                                   : AC-3
Формат/Информация                        : Audio Coding 3
Коммерческое название                    : Dolby Digital
Идентификатор кодека                     : 129
Продолжительность                        : 52 м. 50 с.
Вид битрейта                             : Постоянный
Битрейт                                  : 192 Кбит/сек
Каналы                                   : 2 канала
Channel layout                           : L R
Частота                                  : 48,0 КГц
Частота кадров                           : 31,250 кадров/сек (1536 SPF)
Битовая глубина                          : 16 бит
Метод сжатия                             : С потерями
Размер потока                            : 72,6 Мбайт (1%)
Язык                                     : Russian
ServiceKind/String                       : Complete Main

Аудио #2
Идентификатор                            : 4353 (0x1101)
Идентификатор меню                       : 1 (0x1)
Формат                                   : AC-3
Формат/Информация                        : Audio Coding 3
Коммерческое название                    : Dolby Digital
Идентификатор кодека                     : 129
Продолжительность                        : 52 м. 50 с.
Вид битрейта                             : Постоянный
Битрейт                                  : 384 Кбит/сек
Каналы                                   : 6 каналов
Channel layout                           : L R C LFE Ls Rs
Частота                                  : 48,0 КГц
Частота кадров                           : 31,250 кадров/сек (1536 SPF)
Битовая глубина                          : 16 бит
Метод сжатия                             : С потерями
Размер потока                            : 145 Мбайт (3%)
Язык                                     : English
ServiceKind/String                       : Complete Main

Текст #1
Идентификатор                            : 4113 (0x1011)-CC1
Идентификатор меню                       : 1 (0x1)
Формат                                   : EIA-608
Режим смешивания                         : A/53 / DTVCC Transport
Режим смешивания, доп. информация        : Muxed in Video #1
Продолжительность                        : 52 м. 50 с.
Вид битрейта                             : Постоянный
Размер потока                            : 0,00 байт (0%)
CaptionServiceName                       : CC1

Текст #2
Идентификатор                            : 4113 (0x1011)-1
Идентификатор меню                       : 1 (0x1)
Формат                                   : EIA-708
Режим смешивания                         : A/53 / DTVCC Transport
Режим смешивания, доп. информация        : Muxed in Video #1
Продолжительность                        : 52 м. 50 с.
Вид битрейта                             : Постоянный
Размер потока                            : 0,00 байт (0%)

Скриншоты:




Время раздачи: с 18:00 до 23:00 (до появления первых 3-5 скачавших)
Не забывайте говорить Спасибо. Не уходите с раздачи!   
Торрент: Зарегистрирован [21 янв 2019, 21:14] Для скачивания .torrent
необходима регистрация
Или скачать с помощью
MediaGet
Статус:
Проверен
 
.torrent скачан: 0 раз
Хэш: 7f6046f1416efdc30bc021887dc2f3e04f9b7a3c
Размер: 4.89 ГБ (5 246 832 592 байт)
   Стать Автором раздачи
   
Цитата

Вернуться в Public Broadcasting Service (PBS)

Кто сейчас на конференции

Сейчас эту тему просматривают: нет зарегистрированных пользователей и гости: 1