PBS. Первые цивилизации / First Civilizations (2018) HDTVRip (1-4 серия из 4)

 Статистика раздачи 
Размер: 3.48 ГБ   |  Зарегистрирован: 28 дек 2018, 20:29   |   .torrent скачан: 7 раз
Сидеров: 20  [ 0 байт/сек ]     Личеров: 6  [ 0 байт/сек ]  
  
Аватара пользователя
Я на сайте
 
Раздал: 4.36 ТБ
Скачал: 137.99 ГБ
Ратио: 32.328
Сообщения: 212983
Стаж: 1 год 11 месяцев 29 дней

PBS. Первые цивилизации / First Civilizations (2018) HDTVRip

Производство: США, Wall to Wall Media, PBS
Жанр: Документальный, история, исследование

Режиссер: Том Цебала

Описание:
Первые цивилизации определяют четыре краеугольных камня: война, религия, города и торговля. Используя последние достижения в области археологии, антропологии и генетики, этот сериал рассказывает о том, с чего начался современный мир. Исследуя артефакты, посещая места археологических раскопок, мы переместимся по географическим зонам мира, исследуя, как и почему возникли первые цивилизации.

https://www.imdb.com/title/tt8539056/?ref_=plg_rt_1

Релиз от: alf62
Продолжительность: 4 х ~ 00:54:10
Качество видео: HDTVRip
Перевод: Одноголосый закадровый, профессиональный (SDI Media)

Видео: Xvid, 720x400, ~1900 Kbps
Аудио 1: AC3, 2 ch, 192 Kbps | Русский
Аудио 2: AC3, 2 ch, 192 Kbps | Английский
1. Война / War
Процесс «разрушительного (деструктивноего) творения» - идея, предполагающая, что страх, соперничество и конфликты укрепляют узы сообщества и стимулируют «гонку вооружений» технологического прогресса. Результатом является цивилизация. Древняя Мезоамерика иллюстрирует это развитие.

2. Религия / Religion
Тайной стабильности древнего Египта была религия. Общая вера заставляет людей чувствовать себя едиными. Так было при первых цивилизациях, так осталось и поныне

3. Города / Cities
Взгляните на место рождения цивилизации - Ближний Восток, место, где появились первые в мире города, от холмов Турции до равнин Ирака. Здесь ковались изобретения и инновации

4. Торговля / Trade
Мы внимательнее изучим долину реки Инд. Здесь порядок не навязывался с помощью войны или религии, а регулировался свободной торговлей. Обмен товарами порождал процветание, сотрудничество и доверие
Код: Выделить всё
Общее
Полное имя                               : D:\Запись\Первые цивилизации\Первые.цивилизации.(4.серии.из.4).2018.XviD.HDTVRip.alf62\1.Война.2018.XviD.HDTVRip.alf62.avi
Формат                                   : AVI
Формат/Информация                        : Audio Video Interleave
Размер файла                             : 892 Мбайт
Продолжительность                        : 54 м.
Общий поток                              : 2301 Кбит/сек
Программа кодирования                    : VirtualDubMod 1.5.10.2 (build 2542/release)
Библиотека кодирования                   : VirtualDubMod build 2542/release

Видео
Идентификатор                            : 0
Формат                                   : MPEG-4 Visual
Профиль формата                          : Advanced Simple@L5
Параметр BVOP формата                    : 2
Параметр QPel формата                    : Нет
Параметр GMC формата                     : Без точки перехода
Параметр матрицы формата                 : Default (MPEG)
Идентификатор кодека                     : XVID
Идентификатор кодека/Подсказка           : XviD
Продолжительность                        : 54 м.
Битрейт                                  : 1899 Кбит/сек
Ширина                                   : 720 пикселей
Высота                                   : 400 пикселей
Соотношение сторон                       : 16:9
Частота кадров                           : 29,970 (29970/1000) кадров/сек
Цветовое пространство                    : YUV
Субдискретизация насыщенности            : 4:2:0
Битовая глубина                          : 8 бит
Тип развёртки                            : Прогрессивная
Метод сжатия                             : С потерями
Бит/(Пиксели*Кадры)                      : 0.220
Размер потока                            : 736 Мбайт (83%)
Библиотека кодирования                   : XviD 73

Аудио #1
Идентификатор                            : 1
Формат                                   : AC-3
Формат/Информация                        : Audio Coding 3
Расширение режима                        : CM (complete main)
Параметр Endianness формата              : Big
Идентификатор кодека                     : 2000
Продолжительность                        : 54 м.
Вид битрейта                             : Постоянный
Битрейт                                  : 192 Кбит/сек
Каналы                                   : 2 канала
Расположение каналов                     : Front: L R
Частота                                  : 48,0 КГц
Частота кадров                           : 31,250 кадров/сек (1536 spf)
Метод сжатия                             : С потерями
Размер потока                            : 74,4 Мбайт (8%)
Выравнивание                             : Разделение по промежуткам
Продолжительность промежутка             : 33  мс. (1,00 видеокадр)
Время предзагрузки промежутка            : 500  мс.

Аудио #2
Идентификатор                            : 2
Формат                                   : AC-3
Формат/Информация                        : Audio Coding 3
Расширение режима                        : CM (complete main)
Параметр Endianness формата              : Big
Идентификатор кодека                     : 2000
Продолжительность                        : 54 м.
Вид битрейта                             : Постоянный
Битрейт                                  : 192 Кбит/сек
Каналы                                   : 2 канала
Расположение каналов                     : Front: L R
Частота                                  : 48,0 КГц
Частота кадров                           : 31,250 кадров/сек (1536 spf)
Метод сжатия                             : С потерями
Размер потока                            : 74,4 Мбайт (8%)
Выравнивание                             : Разделение по промежуткам
Продолжительность промежутка             : 33  мс. (1,00 видеокадр)
Время предзагрузки промежутка            : 500  мс.

Скриншоты:







Время раздачи: до появления первых 3-5 скачавших
Не забывайте говорить Спасибо. Не уходите с раздачи!   
Торрент: Зарегистрирован [28 дек 2018, 20:29] Для скачивания .torrent
необходима регистрация
Или скачать с помощью
MediaGet
Статус:
Проверен
 
.torrent скачан: 7 раз
Хэш: ad6ad97441fe95e41f48aeb9e9d501bc76e31404
Размер: 3.48 ГБ (3 731 466 240 байт)
   Стать Автором раздачи
   
Цитата

Вернуться в Public Broadcasting Service (PBS)

Кто сейчас на конференции

Сейчас эту тему просматривают: нет зарегистрированных пользователей и гости: 1