PBS. Первые цивилизации / First Civilizations (2018) HDTVRip [H.264/720p-LQ] (1-4 серия из 4)

 Статистика раздачи 
Размер: 6.62 ГБ   |  Зарегистрирован: 28 дек 2018, 20:05   |   .torrent скачан: 1 раз
Сидеров: 11  [ 0 байт/сек ]     Личеров: 3  [ 0 байт/сек ]  
  
Аватара пользователя
 
Раздал: 4.47 ТБ
Скачал: 176.64 ГБ
Ратио: 25.934
Сообщения: 215100
Стаж: 2 года 3 дня

PBS. Первые цивилизации / First Civilizations (2018) HDTVRip [H.264/720p-LQ]

Производство: США, Wall to Wall Media, PBS
Жанр: Документальный, история, исследование

Режиссер: Том Цебала

Описание:
Первые цивилизации определяют четыре краеугольных камня: война, религия, города и торговля. Используя последние достижения в области археологии, антропологии и генетики, этот сериал рассказывает о том, с чего начался современный мир. Исследуя артефакты, посещая места археологических раскопок, мы переместимся по географическим зонам мира, исследуя, как и почему возникли первые цивилизации.

https://www.imdb.com/title/tt8539056/?ref_=plg_rt_1

Релиз от: alf62
Продолжительность: 4 х ~ 00:54:10
Качество видео: HDTVRip
Перевод: Одноголосый закадровый, профессиональный (SDI Media)

Видео: AVC/H.264, 720x400, ~4000 Kbps
Аудио 1: AC3, 2 ch, 192 Kbps | Русский
Аудио 2: AC3, 2 ch, 192 Kbps | Английский
1. Война / War
Процесс «разрушительного (деструктивноего) творения» - идея, предполагающая, что страх, соперничество и конфликты укрепляют узы сообщества и стимулируют «гонку вооружений» технологического прогресса. Результатом является цивилизация. Древняя Мезоамерика иллюстрирует это развитие.

2. Религия / Religion
Тайной стабильности древнего Египта была религия. Общая вера заставляет людей чувствовать себя едиными. Так было при первых цивилизациях, так осталось и поныне

3. Города / Cities
Взгляните на место рождения цивилизации - Ближний Восток, место, где появились первые в мире города, от холмов Турции до равнин Ирака. Здесь ковались изобретения и инновации

4. Торговля / Trade
Мы внимательнее изучим долину реки Инд. Здесь порядок не навязывался с помощью войны или религии, а регулировался свободной торговлей. Обмен товарами порождал процветание, сотрудничество и доверие
Код: Выделить всё
Общее
Уникальный идентификатор                 : 239592402681457087946523398874981505904 (0xB43FD17A9D2B582CA35B45C23C049B70)
Полное имя                               : D:\Запись\Первые цивилизации\Первые.цивилизации.(4.серии.из.4).2018.HDTVRip.(720p).alf62\1.Война.2018.HDTVRip.(720p).alf62.mkv
Формат                                   : Matroska
Версия формата                           : Version 4 / Version 2
Размер файла                             : 1,66 Гбайт
Продолжительность                        : 54 м.
Общий поток                              : 4385 Кбит/сек
Дата кодирования                         : UTC 2018-12-27 23:20:08
Программа кодирования                    : mkvmerge v6.6.0 ('The Edge Of The In Between') built on Dec  1 2013 17:55:00
Библиотека кодирования                   : libebml v1.3.0 + libmatroska v1.4.1

Видео
Идентификатор                            : 1
Формат                                   : AVC
Формат/Информация                        : Advanced Video Codec
Профиль формата                          : [url=http://nnmclub.to/mailto:High@L4.1]High@L4.1[/url]
Параметр CABAC формата                   : Да
Параметр ReFrames формата                : 8 кадров
Идентификатор кодека                     : V_MPEG4/ISO/AVC
Продолжительность                        : 54 м.
Битрейт                                  : 4000 Кбит/сек
Ширина                                   : 1280 пикселей
Высота                                   : 720 пикселей
Соотношение сторон                       : 16:9
Режим частоты кадров                     : Постоянный
Частота кадров                           : 29,970 (30000/1001) кадров/сек
Частота кадров в оригинале               : 29,970 (29970/1000) кадров/сек
Цветовое пространство                    : YUV
Субдискретизация насыщенности            : 4:2:0
Битовая глубина                          : 8 бит
Тип развёртки                            : Прогрессивная
Бит/(Пиксели*Кадры)                      : 0.145
Размер потока                            : 1,48 Гбайт (89%)
Библиотека кодирования                   : x264 core 146 r2538 121396c
Настройки программы                      : cabac=1 / ref=8 / deblock=1:-1:-2 / analyse=0x3:0x113 / me=umh / subme=10 / psy=1 / psy_rd=1.00:0.00 / mixed_ref=1 / me_range=32 / chroma_me=1 / trellis=2 / 8x8dct=1 / cqm=0 / deadzone=21,11 / fast_pskip=0 / chroma_qp_offset=-2 / threads=6 / lookahead_threads=1 / sliced_threads=0 / nr=0 / decimate=0 / interlaced=0 / bluray_compat=0 / constrained_intra=0 / bframes=9 / b_pyramid=2 / b_adapt=2 / b_bias=0 / direct=3 / weightb=1 / open_gop=0 / weightp=2 / keyint=250 / keyint_min=25 / scenecut=40 / intra_refresh=0 / rc_lookahead=40 / rc=2pass / mbtree=1 / bitrate=4000 / ratetol=1.0 / qcomp=0.60 / qpmin=10 / qpmax=51 / qpstep=4 / cplxblur=20.0 / qblur=0.5 / vbv_maxrate=14000 / vbv_bufsize=14000 / nal_hrd=none / filler=0 / ip_ratio=1.40 / aq=1:0.80
Default                                  : Да
Forced                                   : Нет

Аудио #1
Идентификатор                            : 2
Формат                                   : AC-3
Формат/Информация                        : Audio Coding 3
Расширение режима                        : CM (complete main)
Параметр Endianness формата              : Big
Идентификатор кодека                     : A_AC3
Продолжительность                        : 54 м.
Вид битрейта                             : Постоянный
Битрейт                                  : 192 Кбит/сек
Каналы                                   : 2 канала
Расположение каналов                     : Front: L R
Частота                                  : 48,0 КГц
Частота кадров                           : 31,250 кадров/сек (1536 spf)
Метод сжатия                             : С потерями
Размер потока                            : 74,4 Мбайт (4%)
Default                                  : Нет
Forced                                   : Нет

Аудио #2
Идентификатор                            : 3
Формат                                   : AC-3
Формат/Информация                        : Audio Coding 3
Расширение режима                        : CM (complete main)
Параметр Endianness формата              : Big
Идентификатор кодека                     : A_AC3
Продолжительность                        : 54 м.
Вид битрейта                             : Постоянный
Битрейт                                  : 192 Кбит/сек
Каналы                                   : 2 канала
Расположение каналов                     : Front: L R
Частота                                  : 48,0 КГц
Частота кадров                           : 31,250 кадров/сек (1536 spf)
Метод сжатия                             : С потерями
Размер потока                            : 74,4 Мбайт (4%)
Default                                  : Да
Forced                                   : Нет

Скриншоты:





Время раздачи: до появления первых 3-5 скачавших
Не забывайте говорить Спасибо. Не уходите с раздачи!   
Торрент: Зарегистрирован [28 дек 2018, 20:05] Для скачивания .torrent
необходима регистрация
Или скачать с помощью
MediaGet
Статус:
Проверен
 
.torrent скачан: 1 раз
Хэш: a6899fb923c56e9d8be4b1739af099cba9590408
Размер: 6.62 ГБ (7 111 554 472 байт)
   Стать Автором раздачи
   
Цитата

Вернуться в Public Broadcasting Service (PBS)

Кто сейчас на конференции

Сейчас эту тему просматривают: нет зарегистрированных пользователей и гости: 1