PBS: Мозг с Дэвидом Иглменом / The Brain with David Eagleman (2015) WEBRip [H.264/720p-LQ] (1 сезон, эпизоды 1-6 из 6)

 Статистика раздачи 
Размер: 9.95 ГБ   |  Зарегистрирован: 23 апр 2017, 00:13   |   .torrent скачан: 0 раз
Сидеров: 3  [ 0 байт/сек ]     Личеров: 0  [ 0 байт/сек ]  
  
Аватара пользователя
 
Раздал: 4.45 ТБ
Скачал: 137.99 ГБ
Ратио: 33.052
Сообщения: 214826
Стаж: 2 года 1 день

Мозг с Дэвидом Иглменом / The Brain with David Eagleman (2015) WEBRip [H.264/720p-LQ] (1 сезон, эпизоды 1-6 из 6)

Телекомпания: PBS
Жанр: Документальный

Режиссер: Гленн Барден, Кэтрин Гэйл, Тоби Тракман, Ник Стэйси, Дэвид Иглмен, Джастин Кершоу
Участники: Мэттью Грэхэм Вагнер, Шон Патрик Джадж, Дэвид Иглмен, Шарад Кант Патель, Шерил Стелл

Описание:
Нейробиолог Дэвид Иглман расскажет тебе о том, как ты стал(а) тем кто ты есть, что такое реальность, почему ты выбираешь шоколадное мороженное, а не клубничное, управляешь ли ты собой или нет? (не управляешь). Возможно, посмотрев данную передачу ты с головой окунешься в такой экзистенциальный кризис, что Сартр встанет из могилы и угостит тебя пивом, а Камю сыграет французский гимн на ложках. В документалочке есть с чего истинно потерять голову, а не с этих ваших "Трансформеров" Майкла Бея.




Продолжительность: 6 х ~00:57:00
Качество видео: WEBRip
Перевод: Одноголосый закадровый, любительский (Jimmy J)

Видео: AVC/H.264, 1280x720, ~3500 Kbps
Аудио#1: Русский, AAC, 2 ch, 320 Kbps
Аудио#2: Английский, AAC, 2 ch, 320 Kbps
Код: Выделить всё
Общее
Уникальный идентификатор                 : 228070085570544930344831868207255060436 (0xAB94B3628320CB359EE6BC4BC100FFD4)
Полное имя                               : F:\КИНО\The.Brain.With.Dr.David.Eagleman.S01.720p.WEBRip.JimmyJ\The.Brain.With.Dr.David.Eagleman.S01E01.WEBRip.720p.JimmyJ.mkv
Формат                                   : Matroska
Версия формата                           : Version 4 / Version 2
Размер файла                             : 1,65 Гбайт
Продолжительность                        : 57 м. 4 с.
Общий поток                              : 4132 Кбит/сек
Дата кодирования                         : UTC 2017-02-17 17:14:16
Программа кодирования                    : mkvmerge v9.8.0 ('Kuglblids') 64bit
Библиотека кодирования                   : libebml v1.3.4 + libmatroska v1.4.5

Видео
Идентификатор                            : 1
Формат                                   : AVC
Формат/Информация                        : Advanced Video Codec
Профиль формата                          : [url=http://nnmclub.to/mailto:High@L3.1]High@L3.1[/url]
Параметр CABAC формата                   : Да
Параметр ReFrames формата                : 4 кадра
Идентификатор кодека                     : V_MPEG4/ISO/AVC
Продолжительность                        : 56 м. 54 с.
Битрейт                                  : 3500 Кбит/сек
Ширина                                   : 1280 пикселей
Высота                                   : 720 пикселей
Соотношение сторон                       : 16:9
Режим частоты кадров                     : Постоянный
Частота кадров                           : 25,000 кадров/сек
Цветовое пространство                    : YUV
Субдискретизация насыщенности            : 4:2:0
Битовая глубина                          : 8 бит
Тип развёртки                            : Прогрессивная
Бит/(Пиксели*Кадры)                      : 0.152
Размер потока                            : 1,39 Гбайт (84%)
Заголовок                                : [url=http://vk.com/hardkor_tom]http://vk.com/hardkor_tom[/url]
Библиотека кодирования                   : x264 core 148 r2638 7599210
Настройки программы                      : cabac=1 / ref=3 / deblock=1:0:0 / analyse=0x3:0x113 / me=hex / subme=7 / psy=1 / psy_rd=1.00:0.00 / mixed_ref=1 / me_range=16 / chroma_me=1 / trellis=1 / 8x8dct=1 / cqm=0 / deadzone=21,11 / fast_pskip=1 / chroma_qp_offset=-2 / threads=6 / lookahead_threads=1 / sliced_threads=0 / nr=0 / decimate=1 / interlaced=0 / bluray_compat=0 / constrained_intra=0 / bframes=3 / b_pyramid=2 / b_adapt=1 / b_bias=0 / direct=1 / weightb=1 / open_gop=0 / weightp=2 / keyint=250 / keyint_min=25 / scenecut=40 / intra_refresh=0 / rc_lookahead=40 / rc=2pass / mbtree=1 / bitrate=3500 / ratetol=1.0 / qcomp=0.60 / qpmin=0 / qpmax=69 / qpstep=4 / cplxblur=20.0 / qblur=0.5 / ip_ratio=1.40 / aq=1:1.00
Default                                  : Нет
Forced                                   : Нет

Аудио #1
Идентификатор                            : 2
Формат                                   : AAC
Формат/Информация                        : Advanced Audio Codec
Профиль формата                          : LC
Идентификатор кодека                     : A_AAC
Продолжительность                        : 57 м. 4 с.
Битрейт                                  : 320 Кбит/сек
Каналы                                   : 2 канала
Расположение каналов                     : Front: L R
Частота                                  : 48,0 КГц
Частота кадров                           : 46,875 кадров/сек (1024 spf)
Метод сжатия                             : С потерями
Размер потока                            : 131 Мбайт (8%)
Заголовок                                : AVO JimmyJ
Язык                                     : Russian
Default                                  : Нет
Forced                                   : Нет

Аудио #2
Идентификатор                            : 3
Формат                                   : AAC
Формат/Информация                        : Advanced Audio Codec
Профиль формата                          : LC
Идентификатор кодека                     : A_AAC
Продолжительность                        : 56 м. 54 с.
Битрейт                                  : 320 Кбит/сек
Каналы                                   : 2 канала
Расположение каналов                     : Front: L R
Частота                                  : 48,0 КГц
Частота кадров                           : 46,875 кадров/сек (1024 spf)
Метод сжатия                             : С потерями
Размер потока                            : 130 Мбайт (8%)
Заголовок                                : Original
Язык                                     : English
Default                                  : Нет
Forced                                   : Нет
1 серия. Что такое реальность?
2 серия. Что делает меня самим собой?
3 серия. Кто контролирует?
4 серия. Как мы принимаем решения?
5 серия. Зачем мне ты?
6 серия. Кем мы будем?
При каждом добавлении создаётся новый торрент. Чтобы начать докачку новой серии, пользователям
необходимо сделать следующее:
- Остановить скачивание.
- Удалить старый торрент у себя из клиента (старые серии удалять не надо).
- Скачать новый торрент и запустить его у себя в клиенте вместо старого, при этом указать клиенту путь в старую папку куда и должно происходить скачивание новых серий.

Скриншоты:




Время раздачи: с 18:00 до 23:00 (до появления первых 3-5 скачавших)
Не забывайте говорить Спасибо. Не уходите с раздачи!   
Торрент: Зарегистрирован [23 апр 2017, 00:13] Для скачивания .torrent
необходима регистрация
Или скачать с помощью
MediaGet
Статус:
Проверен
 
.torrent скачан: 0 раз
Хэш: 44aa85f7b5dab8dd140f64342c31f4f4dbe64a07
Размер: 9.95 ГБ (10 686 834 896 байт)
   Стать Автором раздачи
   
Цитата
  • Похожие торренты
    Ответы
    Просмотры
    Последнее сообщение

Вернуться в Public Broadcasting Service (PBS)

Кто сейчас на конференции

Сейчас эту тему просматривают: нет зарегистрированных пользователей и гости: 1