PBS. Nova. Тайна кода майя / Cracking the Maya Code (2008) SATRip

 Статистика раздачи 
Размер: 707.58 МБ   |  Зарегистрирован: 16 окт 2011, 12:24   |   .torrent скачан: 0 раз
Сидеров: 3  [ 0 байт/сек ]     Личеров: 1  [ 0 байт/сек ]  
  
Аватара пользователя
 
Раздал: 4.47 ТБ
Скачал: 176.64 ГБ
Ратио: 25.934
Сообщения: 215100
Стаж: 2 года 3 дня

PBS. Nova. Тайна кода майя / Cracking the Maya Code (2008) SATRip

Режиссер / Телекомпания: Rosey Guthrie
Год выпуска: 2008
Жанр: Документальный

Описание:
Майя, древняя цивилизация центральной Америки, оставила после себя замысловатые и таинственные иероглифические письмена, которые можно обнаружить на зданиях, гончарных изделиях и в книгах. На протяжении многих веков ученые считали, что иероглифы майя слишком сложные для понимания. Однако недавно был совершен ряд гениальных открытий – ученым, наконец, удалось подобрать ключ к коду майя. Он помог пролить свет на турбулентную историю этой древней цивилизации. Программа впервые рассказывает о том, как были расшифрованы иероглифы майя – мы отправимся в джунгли южной Мексики и центральной Америки и узнаем, какие тайны хранят иероглифы майя.

Продолжительность: 00:52:03

Перевод: Одноголосый закадровый, профессиональный

Видеокодек: Xvid
Битрейт видео: ~Xvid 25.00fps 1795kbps
Размер кадра: 720x432
Качество видео: SATRip
Аудиокодек: MP3
Битрейт аудио: MPEG Audio Layer 3 48000Hz mono 96kbps
Формат : AVI
Формат/Информация : Audio Video Interleave
Размер файла : 708 Мбайт
Продолжительность : 52 м.
Общий поток : 1900 Кбит/сек
Программа кодирования : VirtualDubModRus 1.5.10.2 (build 2542/release)
Библиотека кодирования : VirtualDubMod build 2542/release

Видео
Идентификатор : 0
Формат : MPEG-4 Visual
Профиль формата : Advanced Simple@L5
Параметр BVOP формата : 1
Параметр QPel формата : Нет
Параметр GMC формата : Без точки перехода
Параметр матрицы формата : Default (MPEG)
Идентификатор кодека : XVID
Идентификатор кодека/Подсказка : XviD
Продолжительность : 52 м.
Битрейт : 1795 Кбит/сек
Ширина : 720 пикселей
Высота : 432 пикселя
Соотношение сторон : 1,667
Частота кадров : 25,000 кадров/сек
Цветовое пространство : YUV
Субдискретизация насыщенности : 4:2:0
Битовая глубина : 8 бит
Тип развёртки : Прогрессивная
Метод сжатия : С потерями
Бит/(Пиксели*Кадры) : 0.231
Размер потока : 668 Мбайт (94%)
Библиотека кодирования : XviD 61

Аудио
Идентификатор : 1
Формат : MPEG Audio
Версия формата : Version 1
Профиль формата : Layer 3
Идентификатор кодека : 55
Идентификатор кодека/Подсказка : MP3
Продолжительность : 52 м.
Вид битрейта : Постоянный
Битрейт : 96,0 Кбит/сек
Каналы : 1 канал
Частота : 48,0 КГц
Метод сжатия : С потерями
Размер потока : 35,7 Мбайт (5%)
Выравнивание : Разделение по промежуткам
Продолжительность промежутка : 40 мс. (1,00 видеокадр)
Время предзагрузки промежутка : 500 мс.
Скриншоты:


Время раздачи: 24/7 ( до первых скачавших, перебои со связью бывают,зависит от провайдера)
Не забывайте говорить Спасибо. Не уходите с раздачи!   
Торрент: Зарегистрирован [16 окт 2011, 12:24] Для скачивания .torrent
необходима регистрация
Или скачать с помощью
MediaGet
Статус:
Проверен
 
.torrent скачан: 0 раз
Хэш: e7ce1abcd133d2cab11ef3714c0baa8cd7e60e20
Размер: 707.58 МБ (741 951 488 байт)
   Стать Автором раздачи
   
Цитата
  • Похожие торренты
    Ответы
    Просмотры
    Последнее сообщение

Вернуться в Public Broadcasting Service (PBS)

Кто сейчас на конференции

Сейчас эту тему просматривают: нет зарегистрированных пользователей и гости: 1