PBS: Природа - Дом животных / Nature - The Animal House (2011) BDRemux [H.264/1080i]

 Статистика раздачи 
Размер: 12.48 ГБ   |  Зарегистрирован: 25 июн 2018, 14:36   |   .torrent скачан: 0 раз
Сидеров: 3  [ 0 байт/сек ]     Личеров: 1  [ 0 байт/сек ]  
  
Аватара пользователя
 
Раздал: 4.45 ТБ
Скачал: 137.99 ГБ
Ратио: 33.052
Сообщения: 214826
Стаж: 2 года 1 день

Природа - Дом животных / Nature - The Animal House (2011) BDRemux [H.264/1080i]

Производство: США, Rubin Tarrant Productions, PBS
Жанр: Документальный, научно-познавательный, природа

Режиссер: Марк Флэтчер
Участники: Крис Морган

Описание:
Животные строят дома по тем же самым причинам, что и люди, но они начали это делать гораздо, гораздо раньше человека... Дома животных могут быть очень простыми, но иногда они похожи на настоящее архитектурное чудо. Все эти сооружения - вне зависимости от того, нора это, гнездо или еще что-либо - это места, где разворачиваются драмы и где порой происходят очень неординарные события... В этом фильме мы увидим признанных мастеров по части постройки домов - термитов и трудолюбивых бобров, а также подлинных гениев маскировки - птиц-шалашников, умело маскирующих вход в свое жилище яркими цветами, отвлекающими на него внимание... В этом фильме мы попробуем взглянуть на жизнь разнообразных обитателей дикой природы в их "домашних условиях".

https://www.imdb.com/title/tt2054305/?ref_=plg_rt_1

Релиз от: HDclub
Продолжительность: 00:52:42
Качество видео: BDRemux
Перевод: Одноголосый закадровый, профессиональный
Субтитры: Русские, английские, английские

Видео: AVC/H.264, 1920x1080, ~33.0 Mbps
Аудио#1: AC3, 6 ch, 640 kbps | Русский (Перевёл и озвучил: Дмитрий Есарев)
Аудио#2: AC3, 6 ch, 640 kbps | Английский
Код: Выделить всё
Общее
Уникальный идентификатор                 : 178307593889309904903533049221272953220 (0x8624CB1EC5D7DC8866326BF01D81E184)
Полное имя                               : F:\КИНО\The.Animal.House.BDRemux.mkv
Формат                                   : Matroska
Версия формата                           : Version 4 / Version 2
Размер файла                             : 12,5 Гбайт
Продолжительность                        : 52 м. 43 с.
Общий поток                              : 33,9 Мбит/сек
Дата кодирования                         : UTC 2018-06-25 10:48:12
Программа кодирования                    : mkvmerge v24.0.0 ('Beyond The Pale') 64-bit
Библиотека кодирования                   : libebml v1.3.6 + libmatroska v1.4.9

Видео
Идентификатор                            : 1
Формат                                   : AVC
Формат/Информация                        : Advanced Video Codec
Профиль формата                          : [url=http://nnmclub.to/mailto:High@L4.1]High@L4.1[/url]
Настройки формата                        : CABAC / 4 Ref Frames
Параметр CABAC формата                   : Да
Параметр RefFrames формата               : 4 кадра
Идентификатор кодека                     : V_MPEG4/ISO/AVC
Продолжительность                        : 52 м. 42 с.
Вид битрейта                             : Постоянный
Битрейт                                  : 33,0 Мбит/сек
Ширина                                   : 1920 пикселей
Высота                                   : 1080 пикселей
Соотношение сторон                       : 16:9
Режим частоты кадров                     : Переменный
Частота кадров                           : 59,940 (60000/1001) кадров/сек
Частота кадров в оригинале               : 29,970 (30000/1001) кадров/сек
Стандарт вещания                         : NTSC
Цветовое пространство                    : YUV
Субдискретизация насыщенности            : 4:2:0
Битовая глубина                          : 8 бит
Тип развёртки                            : Чересстрочная
Метод сохранения типа развёртки          : Раздельные поля
Порядок развёртки                        : Верхнее поле первое
Бит/(Пиксели*Кадры)                      : 0.266
Размер потока                            : 12,0 Гбайт (96%)
Default                                  : Да
Forced                                   : Нет
Цветовой диапазон                        : Limited
Основные цвета                           : BT.709
Характеристики трансфера                 : BT.709
Коэффициенты матрицы                     : BT.709

Аудио #1
Идентификатор                            : 2
Формат                                   : AC-3
Формат/Информация                        : Audio Coding 3
Идентификатор кодека                     : A_AC3
Продолжительность                        : 52 м. 43 с.
Вид битрейта                             : Постоянный
Битрейт                                  : 640 Кбит/сек
Каналы                                   : 6 каналов
Расположение каналов                     : Front: L C R, Side: L R, LFE
Частота                                  : 48,0 КГц
Частота кадров                           : 31,250 кадров/сек (1536 SPF)
Битовая глубина                          : 16 бит
Метод сжатия                             : С потерями
Размер потока                            : 241 Мбайт (2%)
Язык                                     : Russian
ServiceKind/String                       : Complete Main
Default                                  : Да
Forced                                   : Нет

Аудио #2
Идентификатор                            : 3
Формат                                   : AC-3
Формат/Информация                        : Audio Coding 3
Идентификатор кодека                     : A_AC3
Продолжительность                        : 52 м. 42 с.
Вид битрейта                             : Постоянный
Битрейт                                  : 640 Кбит/сек
Каналы                                   : 6 каналов
Расположение каналов                     : Front: L C R, Side: L R, LFE
Частота                                  : 48,0 КГц
Частота кадров                           : 31,250 кадров/сек (1536 SPF)
Битовая глубина                          : 16 бит
Метод сжатия                             : С потерями
Размер потока                            : 241 Мбайт (2%)
Язык                                     : English
ServiceKind/String                       : Complete Main
Default                                  : Нет
Forced                                   : Нет

Текст #1
Идентификатор                            : 4
Формат                                   : PGS
Режим смешивания                         : zlib
Идентификатор кодека                     : S_HDMV/PGS
Идентификатор кодека/Информация          : Picture based subtitle format used on BDs/HD-DVDs
Продолжительность                        : 51 м. 41 с.
Битрейт                                  : 33,7 Кбит/сек
ElementCount                             : 1384
Размер потока                            : 12,5 Мбайт (0%)
Язык                                     : Russian
Default                                  : Да
Forced                                   : Нет

Текст #2
Идентификатор                            : 5
Формат                                   : PGS
Режим смешивания                         : zlib
Идентификатор кодека                     : S_HDMV/PGS
Идентификатор кодека/Информация          : Picture based subtitle format used on BDs/HD-DVDs
Продолжительность                        : 51 м. 41 с.
Битрейт                                  : 30,9 Кбит/сек
ElementCount                             : 1422
Размер потока                            : 11,4 Мбайт (0%)
Язык                                     : English
Default                                  : Нет
Forced                                   : Нет

Текст #3
Идентификатор                            : 6
Формат                                   : PGS
Режим смешивания                         : zlib
Идентификатор кодека                     : S_HDMV/PGS
Идентификатор кодека/Информация          : Picture based subtitle format used on BDs/HD-DVDs
Продолжительность                        : 51 м. 49 с.
Битрейт                                  : 58,5 Кбит/сек
ElementCount                             : 877
Размер потока                            : 21,7 Мбайт (0%)
Язык                                     : English
Default                                  : Нет
Forced                                   : Нет

Скриншоты:



Время раздачи: с 18:00 до 23:00 (до появления первых 3-5 скачавших)
Не забывайте говорить Спасибо. Не уходите с раздачи!   
Торрент: Зарегистрирован [25 июн 2018, 14:36] Для скачивания .torrent
необходима регистрация
Или скачать с помощью
MediaGet
Статус:
Проверен
 
.torrent скачан: 0 раз
Хэш: ae289245bc981d47836acdca1743a073b894426b
Размер: 12.48 ГБ (13 401 946 420 байт)
   Стать Автором раздачи
   
Цитата
  • Похожие торренты
    Ответы
    Просмотры
    Последнее сообщение

Вернуться в Public Broadcasting Service (PBS)

Кто сейчас на конференции

Сейчас эту тему просматривают: нет зарегистрированных пользователей и гости: 1