PBS: Природа - Невероятные лягушки / PBS: Nature - Fabulous Frogs (2014) BDRip [H.264/1080p] [PR]

 Статистика раздачи 
Размер: 4.61 ГБ   |  Зарегистрирован: 17 июн 2017, 14:38   |   .torrent скачан: 0 раз
Сидеров: 3  [ 0 байт/сек ]     Личеров: 1  [ 0 байт/сек ]  
  
Аватара пользователя
 
Раздал: 4.47 ТБ
Скачал: 176.64 ГБ
Ратио: 25.934
Сообщения: 215100
Стаж: 2 года 3 дня

Невероятные лягушки / Fabulous Frogs (2014) BDRip [H.264/1080p]

Телекомпания: Великобритания, PBS
Жанр: Документальный, природа, флора, фауна

Режиссер: Сэлли Томсон
Участники: Сэр Дэвид Аттенборо

Описание:
Сэр Дэвид Аттенборо отправит нас в путешествие по странному и удивительному миру лягушек, заставляющее по новому взглянуть на этих харизматичных, ярких и зачастую причудливых животных.



Продолжительность: 00:52:59
Качество видео: BDRip
Перевод: Одноголосый закадровый, профессиональный
Перевел и озвучил: Владимир Курдов
Субтитры: отсутствуют

Видео: AVC/H.264, 1920х1080, ~11.2 Mbps
Аудио#1: AC3, 6 ch, 640 kbps | Русский
Аудио#2: AC3, 6 ch, 640 kbps | Английский
Код: Выделить всё
Общее
Уникальный идентификатор                 : 206387659421296393196797486451312360105 (0x9B44D13D66859A90A8DFCBEF1FD8FAA9)
Полное имя                               : F:\КИНО\PBS.Nature.Fabulous.Frogs.2014.BDRip.1080p.mkv
Формат                                   : Matroska
Версия формата                           : Version 4 / Version 2
Размер файла                             : 4,61 Гбайт
Продолжительность                        : 52 м. 59 с.
Общий поток                              : 12,5 Мбит/сек
Название фильма                          : PBS: Nature - Fabulous Frogs @ AlexFilm
Дата кодирования                         : UTC 2014-11-10 21:27:29
Программа кодирования                    : mkvmerge v6.6.0 ('The Edge Of The In Between') built on Dec  1 2013 17:55:00
Библиотека кодирования                   : libebml v1.3.0 + libmatroska v1.4.1

Видео
Идентификатор                            : 1
Формат                                   : AVC
Формат/Информация                        : Advanced Video Codec
Профиль формата                          : [url=http://nnmclub.to/mailto:High@L4.1]High@L4.1[/url]
Параметр CABAC формата                   : Да
Параметр ReFrames формата                : 4 кадра
Идентификатор кодека                     : V_MPEG4/ISO/AVC
Продолжительность                        : 52 м. 59 с.
Битрейт                                  : 11,2 Мбит/сек
Ширина                                   : 1920 пикселей
Высота                                   : 1080 пикселей
Соотношение сторон                       : 16:9
Режим частоты кадров                     : Постоянный
Частота кадров                           : 23,976 (23976/1000) кадра/сек
Цветовое пространство                    : YUV
Субдискретизация насыщенности            : 4:2:0
Битовая глубина                          : 8 бит
Тип развёртки                            : Прогрессивная
Бит/(Пиксели*Кадры)                      : 0.225
Размер потока                            : 4,04 Гбайт (88%)
Библиотека кодирования                   : x264 core 142 r2479 dd79a61
Настройки программы                      : cabac=1 / ref=4 / deblock=1:0:0 / analyse=0x3:0x133 / me=umh / subme=8 / psy=1 / psy_rd=1.00:0.00 / mixed_ref=1 / me_range=16 / chroma_me=1 / trellis=1 / 8x8dct=1 / cqm=0 / deadzone=21,11 / fast_pskip=0 / chroma_qp_offset=-2 / threads=12 / lookahead_threads=2 / sliced_threads=0 / nr=0 / decimate=1 / interlaced=0 / bluray_compat=0 / constrained_intra=0 / bframes=3 / b_pyramid=2 / b_adapt=1 / b_bias=0 / direct=1 / weightb=1 / open_gop=0 / weightp=2 / keyint=250 / keyint_min=23 / scenecut=40 / intra_refresh=0 / rc_lookahead=40 / rc=2pass / mbtree=1 / bitrate=11170 / ratetol=1.0 / qcomp=0.60 / qpmin=0 / qpmax=69 / qpstep=4 / cplxblur=20.0 / qblur=0.5 / ip_ratio=1.40 / aq=1:1.00
Язык                                     : English
Default                                  : Да
Forced                                   : Нет

Аудио #1
Идентификатор                            : 2
Формат                                   : AC-3
Формат/Информация                        : Audio Coding 3
Параметр Endianness формата              : Big
Идентификатор кодека                     : A_AC3
Продолжительность                        : 52 м. 59 с.
Вид битрейта                             : Постоянный
Битрейт                                  : 640 Кбит/сек
Каналы                                   : 6 каналов
Расположение каналов                     : Front: L C R, Side: L R, LFE
Частота                                  : 48,0 КГц
Частота кадров                           : 31,250 кадров/сек (1536 spf)
Битовая глубина                          : 16 бит
Метод сжатия                             : С потерями
Размер потока                            : 243 Мбайт (5%)
Заголовок                                : DD5.1 AlexFilm (В. Курдов)
Язык                                     : Russian
ServiceKind/String                       : Complete Main
Default                                  : Да
Forced                                   : Нет

Аудио #2
Идентификатор                            : 3
Формат                                   : AC-3
Формат/Информация                        : Audio Coding 3
Параметр Endianness формата              : Big
Идентификатор кодека                     : A_AC3
Продолжительность                        : 52 м. 59 с.
Вид битрейта                             : Постоянный
Битрейт                                  : 640 Кбит/сек
Каналы                                   : 6 каналов
Расположение каналов                     : Front: L C R, Side: L R, LFE
Частота                                  : 48,0 КГц
Частота кадров                           : 31,250 кадров/сек (1536 spf)
Битовая глубина                          : 16 бит
Метод сжатия                             : С потерями
Размер потока                            : 243 Мбайт (5%)
Заголовок                                : DD5.1 Original
Язык                                     : English
ServiceKind/String                       : Complete Main
Default                                  : Нет
Forced                                   : Нет

Скриншоты:



Время раздачи: с 18:00 до 23:00 (до появления первых 3-5 скачавших)
Не забывайте говорить Спасибо. Не уходите с раздачи!   
Торрент: Зарегистрирован [17 июн 2017, 14:38] Для скачивания .torrent
необходима регистрация
Или скачать с помощью
MediaGet
Статус:
Проверен
 
.torrent скачан: 0 раз
Хэш: babc185e6043e92aa0462ee6285eb22a85b5b0cb
Размер: 4.61 ГБ (4 949 948 986 байт)
   Стать Автором раздачи
   
Цитата
  • Похожие торренты
    Ответы
    Просмотры
    Последнее сообщение

Вернуться в Public Broadcasting Service (PBS)

Кто сейчас на конференции

Сейчас эту тему просматривают: нет зарегистрированных пользователей и гости: 1