Фракталы. Поиски новых размерностей / Fractals. Hunting The Hidden Dimension (2008) BDRip [H.264/720p-LQ]

 Статистика раздачи 
Размер: 1.85 ГБ   |  Зарегистрирован: 22 апр 2017, 22:15   |   .torrent скачан: 0 раз
Сидеров: 3  [ 0 байт/сек ]     Личеров: 1  [ 0 байт/сек ]  
  
Аватара пользователя
 
Раздал: 4.45 ТБ
Скачал: 137.99 ГБ
Ратио: 33.052
Сообщения: 214826
Стаж: 2 года 1 день

Фракталы. Поиски новых размерностей / Fractals. Hunting The Hidden Dimension (2008) BDRip [H.264/720p-LQ]

Производство: США, PBS NOVA
Жанр: Документальный, Научно-популярный

Режиссёр: Bill Jersey, Michael Schwarz

Описание: Сегодня вряд ли можно найти человека, занимающегося или интересующегося наукой, который не слышал бы о фракталах. Образно говоря, фракталы – это кирпичики, из которых состоят случайные (хаотические) процессы. Большие фракталы могут состоять из более мелких. Несмотря на случайность процессов, в большинстве из них удается выявить некоторые закономерности. При попытках графического изображения этих закономерностей получаются явно видимые объемные тела с нечеткими границами или плоские периодические фигуры – в зависимости от сложности процесса. Получается, что хаос – это определенным образом устроенный порядок. Глядя на них трудно поверить, что это не творения природы и за ними скрываются математические формулы. Фракталы поразительно напоминают объекты живой и неживой природы вокруг нас. Словом они "как настоящие". Скорее всего, именно поэтому, однажды увидев, человек уже не может их забыть. О фрактальном строении Вселенной заговорили сравнительно недавно.

IMDb: http://www.imdb.com/title/tt1287217/

Продолжительность: 00:53:10
Качество видео: BDRip
Перевод: Профессиональный закадровый одноголосый

Видео: AVC/H.264, 1280x720, ~4105 Kbps
Аудио 1: AC3, 6 ch, 384 | Russian
Аудио 2: AC3, 6 ch, 384 | English
Код: Выделить всё
Общее
Уникальный идентификатор                 : 210902793296078755930677542842658631159 (0x9EAA6686EE530101A52546A561EEADF7)
Полное имя                               : E:\1NNMCLUB\PBS.NOVA.Fractals.Hunting.The.Hidden.Dimension.2008.BDRip.720p.x264.AC3.Rus.mkv
Формат                                   : Matroska
Версия формата                           : Version 1
Размер файла                             : 1,85 Гбайт
Продолжительность                        : 53 м. 13 с.
Режим общего битрейта                    : Переменный
Общий поток                              : 4972 Кбит/сек
Дата кодирования                         : UTC 2010-04-22 16:18:10
Программа кодирования                    : mkvmerge v2.4.1 ('Use Me') built on Dec  5 2008 18:30:05
Библиотека кодирования                   : libebml v0.7.7 + libmatroska v0.8.1

Видео
Идентификатор                            : 1
Формат                                   : AVC
Формат/Информация                        : Advanced Video Codec
Профиль формата                          : [url=http://nnmclub.to/mailto:High@L4.1]High@L4.1[/url]
Параметр CABAC формата                   : Да
Параметр ReFrames формата                : 4 кадра
Идентификатор кодека                     : V_MPEG4/ISO/AVC
Продолжительность                        : 53 м. 13 с.
Вид битрейта                             : Переменный
Битрейт                                  : 4105 Кбит/сек
Максимальный битрейт                     : 6000 Кбит/сек
Ширина                                   : 1280 пикселей
Высота                                   : 720 пикселей
Соотношение сторон                       : 16:9
Режим частоты кадров                     : Постоянный
Частота кадров                           : 29,970 (30000/1001) кадров/сек
Стандарт вещания                         : NTSC
Цветовое пространство                    : YUV
Субдискретизация насыщенности            : 4:2:0
Битовая глубина                          : 8 бит
Тип развёртки                            : Прогрессивная
Бит/(Пиксели*Кадры)                      : 0.149
Размер потока                            : 1,53 Гбайт (83%)
Заголовок                                : Video
Default                                  : Да
Forced                                   : Нет
Цветовой диапазон                        : Limited
Основные цвета                           : BT.709
Характеристики трансфера                 : BT.709
Коэффициенты матрицы                     : BT.709

Аудио #1
Идентификатор                            : 2
Формат                                   : AC-3
Формат/Информация                        : Audio Coding 3
Параметр Endianness формата              : Big
Идентификатор кодека                     : A_AC3
Продолжительность                        : 53 м. 13 с.
Вид битрейта                             : Постоянный
Битрейт                                  : 384 Кбит/сек
Каналы                                   : 6 каналов
Расположение каналов                     : Front: L C R, Side: L R, LFE
Частота                                  : 48,0 КГц
Частота кадров                           : 31,250 кадров/сек (1536 spf)
Битовая глубина                          : 16 бит
Метод сжатия                             : С потерями
Размер потока                            : 146 Мбайт (8%)
Заголовок                                : Audio
Язык                                     : Russian
ServiceKind/String                       : Complete Main
Default                                  : Да
Forced                                   : Нет

Аудио #2
Идентификатор                            : 3
Формат                                   : AC-3
Формат/Информация                        : Audio Coding 3
Параметр Endianness формата              : Big
Идентификатор кодека                     : A_AC3
Продолжительность                        : 53 м. 13 с.
Вид битрейта                             : Постоянный
Битрейт                                  : 384 Кбит/сек
Каналы                                   : 6 каналов
Расположение каналов                     : Front: L C R, Side: L R, LFE
Частота                                  : 48,0 КГц
Частота кадров                           : 31,250 кадров/сек (1536 spf)
Битовая глубина                          : 16 бит
Метод сжатия                             : С потерями
Размер потока                            : 146 Мбайт (8%)
Заголовок                                : Audio
Язык                                     : English
ServiceKind/String                       : Complete Main
Default                                  : Нет
Forced                                   : Нет

Скриншоты:



Время раздачи: 24/7 (круглосуточно) (до появления первых 3-5 скачавших)
Не забывайте говорить Спасибо. Не уходите с раздачи!   
Торрент: Зарегистрирован [22 апр 2017, 22:15] Для скачивания .torrent
необходима регистрация
Или скачать с помощью
MediaGet
Статус:
Проверен
 
.torrent скачан: 0 раз
Хэш: 690af1c32790e50eeccffb17af3aef005d7135a5
Размер: 1.85 ГБ (1 984 579 044 байт)
   Стать Автором раздачи
   
Цитата

Вернуться в Public Broadcasting Service (PBS)

Кто сейчас на конференции

Сейчас эту тему просматривают: нет зарегистрированных пользователей и гости: 1