PBS Nature: Радиоактивные волки Чернобыля / Radioactive wolves (2011) HDTVRip

 Статистика раздачи 
Размер: 1.48 ГБ   |  Зарегистрирован: 27 янв 2012, 12:18   |   .torrent скачан: 0 раз
Сидеров: 4  [ 0 байт/сек ]     Личеров: 1  [ 0 байт/сек ]  
  
Аватара пользователя
 
Раздал: 4.45 ТБ
Скачал: 137.99 ГБ
Ратио: 33.052
Сообщения: 214826
Стаж: 2 года 1 день

PBS Nature: Радиоактивные волки Чернобыля / Radioactive wolves (2011) HDTVRip

Спасибо MegaKvazaR

Русское название: PBS Nature: Радиоактивные волки Чернобыля
Оригинальное название: Radioactive wolves
Режиссер / Телекомпания: Клаус Файтенбергер
Год выпуска: 2011
Жанр: Документальный

Описание:
Недавно состоялась мировая премьера международного кино-проекта «Радиоактивные волки Чернобыля», съемки которого проводились в условиях дикой природы белорусского Полесского радиационно-экологического заповедника — на территории, куда из-за сильного загрязнения радионуклидами доступ людей запрещен. По словам известного белорусского кинорежиссера-анималиста Игоря Бышнева, который наравне со специалистами трех крупнейших телеканалов Австрии, Германии и США полтора года переносил тяготы полевой работы в «зоне», в более экстремальных условиях снимать кино ему еще не доводилось. Однако этот почти часовой полнометражный фильм превзошел все ожидания и, уверен режиссер, заслужит достойную оценку зрителей многих стран.

Продолжительность: 00:52:56

Перевод: Одноголосый закадровый, профессиональный

Видеокодек: Xvid
Битрейт видео: ~Xvid 29.97fps 3799 Kbps
Размер кадра: 1280x720
Качество видео: HDTVRip
Аудиокодек: AC3
Битрейт аудио: Dolby AC3 48000Hz stereo 192kbps
Формат : AVI
Формат/Информация : Audio Video Interleave
Размер файла : 1,48 Гбайт
Продолжительность : 52 м.
Общий поток : 4002 Кбит/сек
Программа кодирования : VirtualDubMod 1.5.10.2 (build 2540/release)
Библиотека кодирования : VirtualDubMod build 2540/release

Видео
Идентификатор : 0
Формат : MPEG-4 Visual
Профиль формата : Advanced Simple@L5
Параметр BVOP формата : 2
Параметр QPel формата : Нет
Параметр GMC формата : Без точки перехода
Параметр матрицы формата : Default (H.263)
Режим смешивания : Сжатый битовый поток
Идентификатор кодека : XVID
Идентификатор кодека/Подсказка : XviD
Продолжительность : 52 м.
Битрейт : 3799 Кбит/сек
Ширина : 1280 пикселей
Высота : 720 пикселей
Соотношение сторон : 16:9
Частота кадров : 29,970 кадров/сек
Цветовое пространство : YUV
Субдискретизация насыщенности : 4:2:0
Битовая глубина : 8 бит
Тип развёртки : Прогрессивная
Метод сжатия : С потерями
Бит/(Пиксели*Кадры) : 0.138
Размер потока : 1,40 Гбайт (95%)
Библиотека кодирования : XviD 1.2.0.dev47 (UTC 2006-11-01)

Аудио
Идентификатор : 1
Формат : AC-3
Формат/Информация : Audio Coding 3
Расширение режима : CM (complete main)
Идентификатор кодека : 2000
Продолжительность : 52 м.
Вид битрейта : Постоянный
Битрейт : 192 Кбит/сек
Каналы : 2 канала
Расположение каналов : Front: L R
Частота : 48,0 КГц
Битовая глубина : 16 бит
Метод сжатия : С потерями
Размер потока : 72,7 Мбайт (5%)
Выравнивание : Разделение по промежуткам
Продолжительность промежутка : 33 мс. (1,00 видеокадр)
Время предзагрузки промежутка : 500 мс.
Скриншоты:


Время раздачи: 24/7 ( до первых скачавших, перебои со связью бывают,зависит от провайдера)
Не забывайте говорить Спасибо. Не уходите с раздачи!   
Торрент: Зарегистрирован [27 янв 2012, 12:18] Для скачивания .torrent
необходима регистрация
Или скачать с помощью
MediaGet
Статус:
Проверен
 
.torrent скачан: 0 раз
Хэш: 2f4c2fa4e5acb69274c7d8021e6c7c7e86ab740b
Размер: 1.48 ГБ (1 589 172 224 байт)
   Стать Автором раздачи
   
Цитата
  • Похожие торренты
    Ответы
    Просмотры
    Последнее сообщение

Вернуться в Public Broadcasting Service (PBS)

Кто сейчас на конференции

Сейчас эту тему просматривают: нет зарегистрированных пользователей и гости: 1