PBS Nature: Гималаи / PBS Nature: The Himalayas (2011) [H.264/1080p-LQ] BDRip

 Статистика раздачи 
Размер: 5.83 ГБ   |  Зарегистрирован: 27 ноя 2012, 19:16   |   .torrent скачан: 0 раз
Сидеров: 3  [ 0 байт/сек ]     Личеров: 1  [ 0 байт/сек ]  
  
Аватара пользователя
 
Раздал: 4.45 ТБ
Скачал: 137.99 ГБ
Ратио: 33.052
Сообщения: 214826
Стаж: 2 года 1 день

PBS Nature: Гималаи / PBS Nature: The Himalayas (2011) [H.264/1080p-LQ]BDRip

Русское название: PBS Nature: Гималаи
Оригинальное название: PBS Nature: The Himalayas
Режиссер / Телекомпания: Марк Флетчер, Кейт Фултон, Rubin Tarrant Productions, Trebitsch Produktion International (TPI), WNET Channel 13 New York
Год выпуска: 2011
Жанр: Документальный

Описание:
Гималаи определяют только в превосходных эпитетах. Они не поддаются описанию и пониманию, в то же время учит нас огромной мощи и величии природы. Родившиеся в ледниковый период, они формируют высочайшую горную цепь в мире, протянувшеюся по Азии на протяжении двух тысяч миль. Сами горы считаются священным. Это горы, от которых захватывает дух!

Продолжительность: 00:53:00

Перевод: Одноголосый закадровый, профессиональный

Видеокодек: MPEG-4 AVC/H.264
Битрейт видео: ~14,5 Мбит/с
Размер кадра: 1920 х 1080, 16:9
Качество видео: BDRip
Аудиокодек: AC3 5.1
Битрейт аудио: 640 kb/s CBR

Аудио #1: Русский 5.1 / 48 kHz / 640 kb/s / 16-bit CBR
Аудио #2: Английский 5.1 / 48 kHz / 640 kb/s / 16-bit CBR
Уникальный идентификатор : 209195114304894360813888624966784640247 (0x9D618373D05F28DDA274B3A8E351E4F7)
Полное имя : D:\NNM_CLUB\PBS Nature - The Himalayas.mkv
Формат : Matroska
Версия формата : Version 2
Размер файла : 5,83 Гбайт
Продолжительность : 53 м.
Общий поток : 15,7 Мбит/сек
Дата кодирования : UTC 2012-11-27 16:46:28
Программа кодирования : mkvmerge v5.8.0 ('No Sleep / Pillow') built on Sep 2 2012 15:37:04
Библиотека кодирования : libebml v1.2.3 + libmatroska v1.3.0

Видео
Идентификатор : 1
Формат : AVC
Формат/Информация : Advanced Video Codec
Профиль формата : High@L4.1
Параметр CABAC формата : Да
Параметр ReFrames формата : 4 кадра
Идентификатор кодека : V_MPEG4/ISO/AVC
Продолжительность : 53 м.
Битрейт : 14,5 Мбит/сек
Ширина : 1920 пикселей
Высота : 1080 пикселей
Соотношение сторон : 16:9
Частота кадров : 29,970 кадров/сек
Цветовое пространство : YUV
Субдискретизация насыщенности : 4:2:0
Битовая глубина : 8 бит
Тип развёртки : Прогрессивная
Бит/(Пиксели*Кадры) : 0.233
Размер потока : 5,24 Гбайт (90%)
Заголовок : PBS Nature - The Himalayas (NNM-Club.Ru)
Библиотека кодирования : x264 core 125 r2208 d9d2288
Настройки программы : cabac=1 / ref=4 / deblock=1:-3:-3 / analyse=0x3:0x133 / me=tesa / subme=11 / psy=1 / psy_rd=1.00:0.01 / mixed_ref=1 / me_range=32 / chroma_me=1 / trellis=2 / 8x8dct=1 / cqm=0 / deadzone=21,11 / fast_pskip=0 / chroma_qp_offset=-3 / threads=6 / lookahead_threads=1 / sliced_threads=0 / nr=0 / decimate=0 / interlaced=0 / bluray_compat=0 / constrained_intra=0 / bframes=3 / b_pyramid=2 / b_adapt=2 / b_bias=0 / direct=3 / weightb=1 / open_gop=0 / weightp=2 / keyint=250 / keyint_min=25 / scenecut=40 / intra_refresh=0 / rc_lookahead=60 / rc=2pass / mbtree=1 / bitrate=14500 / ratetol=1.0 / qcomp=0.60 / qpmin=0 / qpmax=69 / qpstep=4 / cplxblur=20.0 / qblur=0.5 / vbv_maxrate=17500 / vbv_bufsize=14000 / nal_hrd=none / ip_ratio=1.40 / aq=1:1.00
Язык : English
Default : Да
Forced : Нет

Аудио #1
Идентификатор : 2
Формат : AC-3
Формат/Информация : Audio Coding 3
Расширение режима : CM (complete main)
Параметр Endianness формата : Big
Идентификатор кодека : A_AC3
Продолжительность : 53 м.
Вид битрейта : Постоянный
Битрейт : 640 Кбит/сек
Каналы : 6 каналов
Расположение каналов : Front: L C R, Side: L R, LFE
Частота : 48,0 КГц
Битовая глубина : 16 бит
Метод сжатия : С потерями
Размер потока : 243 Мбайт (4%)
Язык : Russian
Default : Да
Forced : Нет

Аудио #2
Идентификатор : 3
Формат : AC-3
Формат/Информация : Audio Coding 3
Расширение режима : CM (complete main)
Параметр Endianness формата : Big
Идентификатор кодека : A_AC3
Продолжительность : 53 м.
Вид битрейта : Постоянный
Битрейт : 640 Кбит/сек
Каналы : 6 каналов
Расположение каналов : Front: L C R, Side: L R, LFE
Частота : 48,0 КГц
Битовая глубина : 16 бит
Метод сжатия : С потерями
Размер потока : 243 Мбайт (4%)
Язык : English
Default : Нет
Forced : Нет
Скриншоты:


Время раздачи: 0-24 до 10 скачавших, дальше по возможности
Релизы другого качества:
PBS Nature: Гималаи / The Himalayas (2011) BDRip [720p]
PBS Nature: Гималаи / The Himalayas (2011) BDRip
Не забывайте говорить Спасибо. Не уходите с раздачи!   
Торрент: Зарегистрирован [27 ноя 2012, 19:16] Для скачивания .torrent
необходима регистрация
Или скачать с помощью
MediaGet
Статус:
Проверен
 
.torrent скачан: 0 раз
Хэш: 027495c97fdfa83389f98e17d040368c7a5f05ff
Размер: 5.83 ГБ (6 258 843 192 байт)
   Стать Автором раздачи
   
Цитата

Вернуться в Public Broadcasting Service (PBS)

Кто сейчас на конференции

Сейчас эту тему просматривают: нет зарегистрированных пользователей и гости: 1