Перспектива / Prospect (2018) WEB-DLRip-AVC от ExKinoRay | L

 Статистика раздачи 
Размер: 1.85 ГБ   |  Зарегистрирован: 08 фев 2019, 06:53   |   .torrent скачан: 4 раз
Сидеров: 9  [ 0 байт/сек ]     Личеров: 0  [ 0 байт/сек ]  
  
Аватара пользователя
Главный редактор
Главный редактор
 
Раздал: 90.01 ТБ
Скачал: 3.78 ТБ
Ратио: 24.248
Сообщения: 291047
Стаж: 9 лет 9 месяцев 14 дней
Откуда: Санкт-Петербург

Информация о фильме
Название: Перспектива
Оригинальное название: Prospect
Год выпуска: 2018
Жанр: Фантастика
Режиссер: Кристофер Колдуэлл, Зик Эрл
В ролях: Софи Тэтчер, Джей Дюпласс, Педро Паскаль, Люк Питцрик, Артур Деранло, Андре Ройо, Алекс МакКоли, Даг Доусон, Криста Джонсон, Брайан Гантер
Описание:
В надежде разбогатеть отец с дочерью отправляются на отдалённую луну, где планируют добывать драгоценные камни, сокрытые в глубине опасных лесов. Быстро выясняется, что на луне есть и другие люди, желающие поправить собственное финансовое положение. В итоге вся операция превращается в попытку выжить и сохранить свои жизни. Вынужденная сражаться не только с внешними врагами, но и с жадностью отца, девушка понимает, что она должна сама проложить себе путь к спасению.




Страна: Канада, США
Студия: Depth of Field, Ground Control, BRON Studios
Продолжительность: 01:39:45
Перевод: Любительский (многоголосый, закадровый) | @MUZOBOZ@

БЕЗ КАКОЙ-ЛИБО РЕКЛАМЫ!

Формат: MKV
Качество: WEB-DLRip-AVC
Видео: MPEG-4 AVC, 1024x550 (2.40:1), 24.000 fps, 2020 Kbps, 0.149 bit/pixel
Аудио #01: AC3, 6 ch, 384 kbps [ремастеринг - Ash61] |
Аудио #02: 48 kHz, AC3, 5.1, 448 Kbps | Оригинал | ENG |

General
Unique ID : 185206522641208875498235778162431428226 (0x8B557A91A84358BD837FF19F16ED0682)
Complete name : D:Prospect 2018.MVO.WEB-DLRip.AVC.ExKinoRay.mkv
Format : Matroska
Format version : Version 2
File size : 1.85 GiB
Duration : 1 h 39 min
Overall bit rate : 2 662 kb/s
Movie name : Prospect 2018 from ExKinoRay
Encoded date : UTC 2019-02-08 02:56:15
Writing application : mkvmerge v5.6.0 ('Kenya Kane') built on May 27 2012 16:44:04
Writing library : libebml v1.2.3 + libmatroska v1.3.0
Attachments : poster.jpg

Video
ID : 1
Format : AVC
Format/Info : Advanced Video Codec
Format profile : High@L4.1
Format settings, CABAC : Yes
Format settings, ReFrames : 11 frames
Codec ID : V_MPEG4/ISO/AVC
Duration : 1 h 39 min
Bit rate : 2 020 kb/s
Width : 1 024 pixels
Height : 550 pixels
Display aspect ratio : 1.85:1
Frame rate mode : Constant
Frame rate : 24.000 FPS
Color space : YUV
Chroma subsampling : 4:2:0
Bit depth : 8 bits
Scan type : Progressive
Bits/(Pixel*Frame) : 0.149
Stream size : 1.37 GiB (74%)
Title : Enigma
Writing library : x264 core 152 r2851 ba24899
Encoding settings : cabac=1 / ref=11 / deblock=1:-2:-2 / analyse=0x3:0x113 / me=umh / subme=10 / psy=1 / psy_rd=0.98:0.07 / mixed_ref=1 / me_range=32 / chroma_me=1 / trellis=2 / 8x8dct=1 / cqm=0 / deadzone=21,11 / fast_pskip=0 / chroma_qp_offset=-3 / threads=12 / lookahead_threads=3 / sliced_threads=0 / nr=0 / decimate=0 / interlaced=0 / bluray_compat=0 / constrained_intra=0 / bframes=10 / b_pyramid=2 / b_adapt=2 / b_bias=0 / direct=3 / weightb=1 / open_gop=0 / weightp=2 / keyint=240 / keyint_min=24 / scenecut=40 / intra_refresh=0 / rc=2pass / mbtree=0 / bitrate=2020 / ratetol=1.0 / qcomp=0.60 / qpmin=0 / qpmax=51 / qpstep=4 / cplxblur=20.0 / qblur=0.5 / ip_ratio=1.40 / pb_ratio=1.30 / aq=2:0.90
Language : English
Default : Yes
Forced : No
Color range : Limited
Color primaries : BT.709
Transfer characteristics : BT.709
Matrix coefficients : BT.709

Audio #1
ID : 2
Format : AC-3
Format/Info : Audio Coding 3
Mode extension : CM (complete main)
Format settings, Endianness : Big
Codec ID : A_AC3
Duration : 1 h 39 min
Bit rate mode : Constant
Bit rate : 256 kb/s
Channel(s) : 2 channels
Channel positions : Front: L R
Sampling rate : 48.0 kHz
Frame rate : 31.250 FPS (1536 spf)
Compression mode : Lossy
Stream size : 183 MiB (10%)
Title : MVO (MUZOBOZ)
Language : Russian
Default : Yes
Forced : No

Audio #2
ID : 3
Format : AC-3
Format/Info : Audio Coding 3
Mode extension : CM (complete main)
Format settings, Endianness : Big
Codec ID : A_AC3
Duration : 1 h 39 min
Bit rate mode : Constant
Bit rate : 384 kb/s
Channel(s) : 6 channels
Channel positions : Front: L C R, Side: L R, LFE
Sampling rate : 48.0 kHz
Frame rate : 31.250 FPS (1536 spf)
Compression mode : Lossy
Stream size : 274 MiB (14%)
Language : English
Default : No
Forced : No

Menu
00:00:00.000 : en:1
00:02:31.000 : en:2
00:13:07.000 : en:3
00:21:17.000 : en:4
00:33:49.000 : en:5
00:46:57.000 : en:6
00:59:27.000 : en:7
01:08:54.000 : en:8
01:20:40.000 : en:9
01:33:55.000 : en:10




Релиз от:

Автор релиза:
Не забывайте говорить Спасибо. Не уходите с раздачи!   
Торрент: Зарегистрирован [08 фев 2019, 06:53]
Статус:
Проверен
 
.torrent скачан: 4 раз
Хэш: e52a71a243caddf4e23ccfcc9f9d504e2fe77431
Размер: 1.85 ГБ (1 991 323 480 байт)
   Стать Автором раздачи
   
Цитата
  • Похожие торренты
    Ответы
    Просмотры
    Последнее сообщение

Вернуться в Зарубежное кино (HDRip, DVDRip)

Кто сейчас на конференции

Сейчас эту тему просматривают: нет зарегистрированных пользователей и гости: 1