Исландия: Северное сияние / Iceland: Northern Lights (2018) WEBRip [H.264/2160p] [4K, UHD]

 Статистика раздачи 
Размер: 894.03 МБ   |  Зарегистрирован: 11 фев 2019, 02:12   |   .torrent скачан: 11 раз
Сидеров: 7  [ 0 байт/сек ]     Личеров: 1  [ 0 байт/сек ]  
  
Аватара пользователя
 
Раздал: 4.09 ТБ
Скачал: 125.06 ГБ
Ратио: 33.529
Сообщения: 208382
Стаж: 1 год 11 месяцев

Исландия: Северное сияние / Iceland: Northern Lights (2018) WEBRip

Производство: Исландия
Жанр: Документальный, видовой

Режиссер: Грегори Фуа

Описание:
Это видео потрясающе выполнено. Кадры захватывающие, чёткие и очень подробные. Однако это заняло очень много времени.

Продолжительность: 00:05:40
Качество видео: WEBRip
Перевод: Не требуется (нет диалогов и комментариев)
Субтитры: отсутствуют

Видео: AVC/H.264, 3840x2160, ~22,0 Mbps
Аудио: AAC, 2 ch, 137 Kbps
Код: Выделить всё
Общее
Уникальный идентификатор                 : 231797783498530127981671027234857998660 (0xAE62A1151A1C3DDA570FAACF45E6D944)
Полное имя                               : F:\КИНО\ИСЛАНДИЯ. СЕВЕРНОЕ СИЯНИЕ.mkv
Формат                                   : Matroska
Версия формата                           : Version 4
Размер файла                             : 894 Мбайт
Продолжительность                        : 5 м. 40 с.
Общий поток                              : 22,1 Мбит/сек
Дата кодирования                         : UTC 2019-02-10 22:24:55
Программа кодирования                    : mkvmerge v31.0.0 ('Dolores In A Shoestand') 64-bit
Библиотека кодирования                   : libebml v1.3.6 + libmatroska v1.4.9

Видео
Идентификатор                            : 1
Формат                                   : AVC
Формат/Информация                        : Advanced Video Codec
Профиль формата                          : [url=http://nnmclub.to/mailto:High@L5.2]High@L5.2[/url]
Настройки формата                        : CABAC / 5 Ref Frames
Параметр CABAC формата                   : Да
Параметр RefFrames формата               : 5 кадров
Идентификатор кодека                     : V_MPEG4/ISO/AVC
Продолжительность                        : 5 м. 40 с.
Битрейт                                  : 22,0 Мбит/сек
Ширина                                   : 3840 пикселей
Высота                                   : 2160 пикселей
Соотношение сторон                       : 16:9
Режим частоты кадров                     : Постоянный
Частота кадров                           : 24,000 кадра/сек
Цветовое пространство                    : YUV
Субдискретизация насыщенности            : 4:2:0
Битовая глубина                          : 8 бит
Тип развёртки                            : Прогрессивная
Бит/(Пиксели*Кадры)                      : 0.111
Размер потока                            : 888 Мбайт (99%)
Библиотека кодирования                   : x264 core 157 r10M 303c484
Настройки программы                      : cabac=1 / ref=5 / deblock=1:0:0 / analyse=0x3:0x113 / me=hex / subme=8 / psy=1 / psy_rd=1.00:0.00 / mixed_ref=1 / me_range=16 / chroma_me=1 / trellis=2 / 8x8dct=1 / cqm=0 / deadzone=21,11 / fast_pskip=1 / chroma_qp_offset=-2 / threads=48 / lookahead_threads=8 / sliced_threads=0 / nr=0 / decimate=1 / interlaced=0 / bluray_compat=0 / stitchable=1 / constrained_intra=0 / bframes=3 / b_pyramid=2 / b_adapt=2 / b_bias=0 / direct=3 / weightb=1 / open_gop=0 / weightp=2 / keyint=infinite / keyint_min=24 / scenecut=40 / intra_refresh=0 / rc_lookahead=50 / rc=2pass / mbtree=1 / bitrate=22000 / ratetol=1.0 / qcomp=0.60 / qpmin=5 / qpmax=69 / qpstep=4 / cplxblur=20.0 / qblur=0.5 / vbv_maxrate=24200 / vbv_bufsize=66000 / nal_hrd=none / filler=0 / ip_ratio=1.40 / aq=1:1.00
Default                                  : Да
Forced                                   : Нет
Цветовой диапазон                        : Limited
Основные цвета                           : BT.709
Характеристики трансфера                 : BT.709
Коэффициенты матрицы                     : BT.709

Аудио
Идентификатор                            : 2
Формат                                   : AAC LC
Формат/Информация                        : Advanced Audio Codec Low Complexity
Идентификатор кодека                     : A_AAC-2
Продолжительность                        : 5 м. 40 с.
Битрейт                                  : 137 Кбит/сек
Каналы                                   : 2 канала
Channel layout                           : L R
Частота                                  : 48,0 КГц
Частота кадров                           : 46,875 кадров/сек (1024 SPF)
Метод сжатия                             : С потерями
Размер потока                            : 5,55 Мбайт (1%)
Default                                  : Да
Forced                                   : Нет

Скриншоты:




Время раздачи: с 18:00 до 23:00 (до появления первых 3-5 скачавших)
Не забывайте говорить Спасибо. Не уходите с раздачи!   
Торрент: Зарегистрирован [11 фев 2019, 02:12] Для скачивания .torrent
необходима регистрация
Или скачать с помощью
MediaGet
Статус:
Проверен
 
.torrent скачан: 11 раз
Хэш: 668825d9266f69310276f1543d472ea84a5e9169
Размер: 894.03 МБ (937 462 230 байт)
   Стать Автором раздачи
   
Цитата

Вернуться в Видовой

Кто сейчас на конференции

Сейчас эту тему просматривают: нет зарегистрированных пользователей и гости: 1