Tesla Boy - Discography 4 Albums (2010-2018) [FLAC|Lossless|tracks + .cue, tracks] <Synthpop, New Wave>

 Статистика раздачи 
Размер: 1.96 ГБ   |  Зарегистрирован: 10 фев 2019, 21:02   |   .torrent скачан: 0 раз
Сидеров: 4  [ 0 байт/сек ]     Личеров: 1  [ 0 байт/сек ]  
  
Аватара пользователя
Я на сайте
 
Раздал: 6.16 ТБ
Скачал: 195.34 ГБ
Ратио: 32.269
Сообщения: 239089
Стаж: 2 года 4 месяца 30 дней

Tesla Boy
Discography

Жанр:
Synthpop, New Wave | Издание: Mullet Records & Gorby Records
Продолжительность: 03:39:51 | Кодек: FLAC | Битрейт: Lossless | Тип рипа: tracks + .cue, tracks
Продолжительность: 00:56:51
Треклист:

01. Electric Lady (5:21)
02. Synthetic Prince (4:30)
03. Rebecca (4:17)
04. Synchronizing (5:59)
05. Minsk-2 (5:32)
06. Dark Street (6:24)
07. Liberating Soul (6:05)
08. Fire (4:54)
09. Make Believe Ballroom (2:17)
10. Thinking Of You (7:01)
11. Speed Of Light (4:32)
Код: Выделить всё
Exact Audio Copy V1.1 from 23. June 2015

EAC extraction logfile from 29. June 2017, 19:19

Tesla Boy / Modern Thrills

Used drive  : TSSTcorpCDDVDW SN-S083C   Adapter: 1  ID: 0

Read mode               : Secure
Utilize accurate stream : Yes
Defeat audio cache      : Yes
Make use of C2 pointers : No

Read offset correction                      : 6
Overread into Lead-In and Lead-Out          : No
Fill up missing offset samples with silence : Yes
Delete leading and trailing silent blocks   : No
Null samples used in CRC calculations       : Yes
Used interface                              : Native Win32 interface for Win NT & 2000
Gap handling                                : Appended to previous track

Used output format              : User Defined Encoder
Selected bitrate                : 1024 kBit/s
Quality                         : High
Add ID3 tag                     : No
Command line compressor         : C:\Program Files (x86)\Exact Audio Copy\Flac\flac.exe
Additional command line options : -8 -e -V -T "ARTIST=%artist%" -T "TITLE=%title%" -T "ALBUM=%albumtitle%" -T "DATE=%year%" -T "TRACKNUMBER=%tracknr%" -T "GENRE=%genre%" -T "PERFORMER=%albuminterpret%" -T "COMPOSER=%composer%" %haslyrics%--tag-from-file=LYRICS="%lyricsfile%"%haslyrics% -T "ALBUMARTIST=%albumartist%" -T "DISCNUMBER=%cdnumber%" -T "TOTALDISCS=%totalcds%" -T "TOTALTRACKS=%numtracks%" -T "COMMENT=%comment%" %source% -o %dest%

TOC of the extracted CD

     Track |   Start  |  Length  | Start sector | End sector
    ---------------------------------------------------------
        1  |  0:00.00 |  5:20.53 |         0    |    24052
        2  |  5:20.53 |  4:29.40 |     24053    |    44267
        3  |  9:50.18 |  4:17.14 |     44268    |    63556
        4  | 14:07.32 |  5:58.72 |     63557    |    90478
        5  | 20:06.29 |  5:32.24 |     90479    |   115402
        6  | 25:38.53 |  6:24.08 |    115403    |   144210
        7  | 32:02.61 |  6:04.58 |    144211    |   171568
        8  | 38:07.44 |  4:53.45 |    171569    |   193588
        9  | 43:01.14 |  2:16.55 |    193589    |   203843
       10  | 45:17.69 |  7:01.22 |    203844    |   235440
       11  | 52:19.16 |  4:31.40 |    235441    |   255805

Track  1

     Filename D:\EAC\Tesla Boy - Modern Thrills (2010) [FLAC]\01 Electric Lady.wav

     Pre-gap length  0:00:02.00

     Peak level 99.9 %
     Extraction speed 1.0 X
     Track quality 99.9 %
     Test CRC 80F766E1
     Copy CRC 80F766E1
     Accurately ripped (confidence 2)  [84BDAD83]  (AR v2)
     Copy OK

Track  2

     Filename D:\EAC\Tesla Boy - Modern Thrills (2010) [FLAC]\02 Synthetic Prince.wav

     Peak level 99.9 %
     Extraction speed 1.3 X
     Track quality 100.0 %
     Test CRC D1749D08
     Copy CRC D1749D08
     Accurately ripped (confidence 2)  [06E72785]  (AR v2)
     Copy OK

Track  3

     Filename D:\EAC\Tesla Boy - Modern Thrills (2010) [FLAC]\03 Rebecca.wav

     Peak level 99.9 %
     Extraction speed 1.4 X
     Track quality 100.0 %
     Test CRC 820BDBE6
     Copy CRC 820BDBE6
     Accurately ripped (confidence 2)  [D1BDBABB]  (AR v2)
     Copy OK

Track  4

     Filename D:\EAC\Tesla Boy - Modern Thrills (2010) [FLAC]\04 Synchronizing.wav

     Pre-gap length  0:00:02.57

     Peak level 99.9 %
     Extraction speed 1.5 X
     Track quality 100.0 %
     Test CRC D4AA5FD8
     Copy CRC D4AA5FD8
     Accurately ripped (confidence 2)  [421B0ECB]  (AR v2)
     Copy OK

Track  5

     Filename D:\EAC\Tesla Boy - Modern Thrills (2010) [FLAC]\05 Minsk-2.wav

     Pre-gap length  0:00:00.77

     Peak level 99.9 %
     Extraction speed 1.5 X
     Track quality 99.9 %
     Test CRC C4BED557
     Copy CRC C4BED557
     Accurately ripped (confidence 2)  [2BBB60C2]  (AR v2)
     Copy OK

Track  6

     Filename D:\EAC\Tesla Boy - Modern Thrills (2010) [FLAC]\06 Dark Street.wav

     Pre-gap length  0:00:00.42

     Peak level 99.9 %
     Extraction speed 1.7 X
     Track quality 99.9 %
     Test CRC 08CB443F
     Copy CRC 08CB443F
     Accurately ripped (confidence 2)  [301BBB99]  (AR v2)
     Copy OK

Track  7

     Filename D:\EAC\Tesla Boy - Modern Thrills (2010) [FLAC]\07 Liberating Soul.wav

     Pre-gap length  0:00:00.29

     Peak level 99.9 %
     Extraction speed 1.9 X
     Track quality 100.0 %
     Test CRC A6E26AD3
     Copy CRC A6E26AD3
     Accurately ripped (confidence 2)  [BDA8AE96]  (AR v2)
     Copy OK

Track  8

     Filename D:\EAC\Tesla Boy - Modern Thrills (2010) [FLAC]\08 Fire.wav

     Pre-gap length  0:00:01.44

     Peak level 99.9 %
     Extraction speed 2.0 X
     Track quality 100.0 %
     Test CRC 5A317277
     Copy CRC 5A317277
     Accurately ripped (confidence 2)  [3486D78A]  (AR v2)
     Copy OK

Track  9

     Filename D:\EAC\Tesla Boy - Modern Thrills (2010) [FLAC]\09 Make Believe Ballroom.wav

     Peak level 99.9 %
     Extraction speed 1.8 X
     Track quality 100.0 %
     Test CRC 23DD6721
     Copy CRC 23DD6721
     Accurately ripped (confidence 2)  [068D3F84]  (AR v2)
     Copy OK

Track 10

     Filename D:\EAC\Tesla Boy - Modern Thrills (2010) [FLAC]\10 Thinking Of You.wav

     Pre-gap length  0:00:00.13

     Peak level 99.9 %
     Extraction speed 2.0 X
     Track quality 99.9 %
     Test CRC 239AE95D
     Copy CRC 239AE95D
     Accurately ripped (confidence 2)  [E2855EF2]  (AR v2)
     Copy OK

Track 11

     Filename D:\EAC\Tesla Boy - Modern Thrills (2010) [FLAC]\11 Speed Of Light.wav

     Pre-gap length  0:00:00.20

     Peak level 99.9 %
     Extraction speed 2.2 X
     Track quality 100.0 %
     Test CRC BC3220A7
     Copy CRC BC3220A7
     Accurately ripped (confidence 2)  [F82424E2]  (AR v2)
     Copy OK

All tracks accurately ripped

No errors occurred

End of status report

---- CUETools DB Plugin V2.1.6

[CTDB TOCID: yRizXOiRaBwpQlGTwWcmxq7hrz8-] found
Submit result: yRizXOiRaBwpQlGTwWcmxq7hrz8- has been confirmed
Track | CTDB Status
  1   | (3/3) Accurately ripped
  2   | (3/3) Accurately ripped
  3   | (3/3) Accurately ripped
  4   | (3/3) Accurately ripped
  5   | (3/3) Accurately ripped
  6   | (3/3) Accurately ripped
  7   | (3/3) Accurately ripped
  8   | (3/3) Accurately ripped
  9   | (3/3) Accurately ripped
 10   | (3/3) Accurately ripped
 11   | (3/3) Accurately ripped

==== Log checksum 070A36ED8BD3E746F9C5CAEEA85A47BD0B3C2C17ABCD3EBDB36C113495E7EBC2 ====
#77Продолжительность: 00:50:58
Треклист:

01. Dream Machine (4:51)
02. M.C.H.T.E. (5:03)
03. Invisible (4:28)
04. Broken Doll (4:45)
05. Split (4:26)
06. Fantasy (3:48)
07. Saturn (Interlude) (2:38)
08. Undetected (4:44)
09. Stars (4:42)
10. Something Deep Inside (Interlude) (2:04)
11. Paraffin (4:12)
12. 1991 (5:16)
Код: Выделить всё
Exact Audio Copy V1.0 beta 3 from 29. August 2011

EAC extraction logfile from 20. April 2015, 0:06

Tesla Boy / The Universe Made of Darkness [Limited Digipak CD Edition]

Used drive  : PIONEER DVD-RW  DVR-111D   Adapter: 0  ID: 0

Read mode               : Secure
Utilize accurate stream : Yes
Defeat audio cache      : Yes
Make use of C2 pointers : No

Read offset correction                      : 48
Overread into Lead-In and Lead-Out          : No
Fill up missing offset samples with silence : Yes
Delete leading and trailing silent blocks   : No
Null samples used in CRC calculations       : Yes
Used interface                              : Native Win32 interface for Win NT & 2000
Gap handling                                : Appended to previous track

Used output format              : User Defined Encoder
Selected bitrate                : 1024 kBit/s
Quality                         : High
Add ID3 tag                     : No
Command line compressor         : C:\Program Files\Exact Audio Copy\Flac\flac.exe
Additional command line options : -8 -V -T "ARTIST=%artist%" -T "TITLE=%title%" -T "ALBUM=%albumtitle%" -T "DATE=%year%" -T "TRACKNUMBER=%tracknr%" -T "GENRE=%genre%" -T "PERFORMER=%albuminterpret%" -T "COMPOSER=%composer%" %haslyrics%--tag-from-file=LYRICS="%lyricsfile%"%haslyrics% -T "ALBUMARTIST=%albumartist%" -T "DISCNUMBER=%cdnumber%" -T "TOTALDISCS=%totalcds%" -T "TOTALTRACKS=%numtracks%" -T "COMMENT=%comment%" %source% -o %dest%

TOC of the extracted CD

     Track |   Start  |  Length  | Start sector | End sector
    ---------------------------------------------------------
        1  |  0:00.00 |  4:51.04 |         0    |    21828
        2  |  4:51.04 |  5:02.41 |     21829    |    44519
        3  |  9:53.45 |  4:28.19 |     44520    |    64638
        4  | 14:21.64 |  4:45.28 |     64639    |    86041
        5  | 19:07.17 |  4:26.05 |     86042    |   105996
        6  | 23:33.22 |  3:47.50 |    105997    |   123071
        7  | 27:20.72 |  2:37.68 |    123072    |   134914
        8  | 29:58.65 |  4:44.23 |    134915    |   156237
        9  | 34:43.13 |  4:42.22 |    156238    |   177409
       10  | 39:25.35 |  2:04.36 |    177410    |   186745
       11  | 41:29.71 |  4:12.02 |    186746    |   205647
       12  | 45:41.73 |  5:15.48 |    205648    |   229320

Track  1

     Filename D:\2014.11.19 - The Universe Made of Darkness [Limited Digipak CD Edition]\01. Dream Machine.wav

     Pre-gap length  0:00:02.00

     Peak level 100.0 %
     Extraction speed 1.7 X
     Track quality 100.0 %
     Test CRC E18F6185
     Copy CRC E18F6185
     Track not present in AccurateRip database
     Copy OK

Track  2

     Filename D:\2014.11.19 - The Universe Made of Darkness [Limited Digipak CD Edition]\02. M.C.H.T.E..wav

     Peak level 100.0 %
     Extraction speed 2.0 X
     Track quality 100.0 %
     Test CRC 7A876EAB
     Copy CRC 7A876EAB
     Track not present in AccurateRip database
     Copy OK

Track  3

     Filename D:\2014.11.19 - The Universe Made of Darkness [Limited Digipak CD Edition]\03. Invisible.wav

     Peak level 99.9 %
     Extraction speed 1.9 X
     Track quality 99.9 %
     Test CRC 6B05CEED
     Copy CRC 6B05CEED
     Track not present in AccurateRip database
     Copy OK

Track  4

     Filename D:\2014.11.19 - The Universe Made of Darkness [Limited Digipak CD Edition]\04. Broken Doll.wav

     Peak level 100.0 %
     Extraction speed 2.3 X
     Track quality 100.0 %
     Test CRC AF521621
     Copy CRC AF521621
     Track not present in AccurateRip database
     Copy OK

Track  5

     Filename D:\2014.11.19 - The Universe Made of Darkness [Limited Digipak CD Edition]\05. Split.wav

     Peak level 99.9 %
     Extraction speed 2.4 X
     Track quality 100.0 %
     Test CRC 5F2035A7
     Copy CRC 5F2035A7
     Track not present in AccurateRip database
     Copy OK

Track  6

     Filename D:\2014.11.19 - The Universe Made of Darkness [Limited Digipak CD Edition]\06. Fantasy.wav

     Peak level 100.0 %
     Extraction speed 2.4 X
     Track quality 100.0 %
     Test CRC 793432C6
     Copy CRC 793432C6
     Track not present in AccurateRip database
     Copy OK

Track  7

     Filename D:\2014.11.19 - The Universe Made of Darkness [Limited Digipak CD Edition]\07. Saturn (Interlude).wav

     Peak level 99.9 %
     Extraction speed 2.4 X
     Track quality 100.0 %
     Test CRC ABB7E59E
     Copy CRC ABB7E59E
     Track not present in AccurateRip database
     Copy OK

Track  8

     Filename D:\2014.11.19 - The Universe Made of Darkness [Limited Digipak CD Edition]\08. Undetected.wav

     Peak level 100.0 %
     Extraction speed 2.7 X
     Track quality 100.0 %
     Test CRC 75DC9E2E
     Copy CRC 75DC9E2E
     Track not present in AccurateRip database
     Copy OK

Track  9

     Filename D:\2014.11.19 - The Universe Made of Darkness [Limited Digipak CD Edition]\09. Stars.wav

     Peak level 100.0 %
     Extraction speed 2.8 X
     Track quality 100.0 %
     Test CRC E90B6CDA
     Copy CRC E90B6CDA
     Track not present in AccurateRip database
     Copy OK

Track 10

     Filename D:\2014.11.19 - The Universe Made of Darkness [Limited Digipak CD Edition]\10. Something Deep Inside (Interlude).wav

     Peak level 100.0 %
     Extraction speed 1.9 X
     Track quality 99.9 %
     Test CRC 9AB05D4D
     Copy CRC 9AB05D4D
     Track not present in AccurateRip database
     Copy OK

Track 11

     Filename D:\2014.11.19 - The Universe Made of Darkness [Limited Digipak CD Edition]\11. Paraffin.wav

     Peak level 100.0 %
     Extraction speed 2.8 X
     Track quality 100.0 %
     Test CRC E8D9DD95
     Copy CRC E8D9DD95
     Track not present in AccurateRip database
     Copy OK

Track 12

     Filename D:\2014.11.19 - The Universe Made of Darkness [Limited Digipak CD Edition]\12. 1991.wav

     Peak level 100.0 %
     Extraction speed 3.1 X
     Track quality 100.0 %
     Test CRC 733638BD
     Copy CRC 733638BD
     Track not present in AccurateRip database
     Copy OK

None of the tracks are present in the AccurateRip database

No errors occurred

End of status report

---- CUETools DB Plugin V2.1.3

[CTDB TOCID: HExA0L62zrfL69zQEmoNoZ2YDRk-] disk not present in database, Submit result: HExA0L62zrfL69zQEmoNoZ2YDRk- has been uploaded

==== Log checksum EB2FC01CA12398E23601DD97280A0A503FFC3EB74148D3A6E681AAE4290A9D01 ====
#77Продолжительность: 01:04:49
Треклист:

01. Undetected [Shur-I-Kan Remix] (5:42)
02. Stars [Killy Cakes Remix] (3:49)
03. Dream Machine [Mujuice Acid Pop Remix] (6:26)
04. 1991 [Xinobi Remix] (6:15)
05. Invisible [Sportloto Remix] (7:25)
06. Broken Doll [Pioneerball Remix] (5:23)
07. M.C.H.T.E. [Cream Soda Remix] (6:32)
08. Paraffin [Cosmonaut Grechko Remix] (5:34)
09. Split [7he Myriads Remix] (6:46)
10. Fantasy [Pioneerball Remix] (3:40)
11. Dream Machine [Cable Toy Remix] (7:17)
Код: Выделить всё
Exact Audio Copy V1.0 beta 3 from 29. August 2011

EAC extraction logfile from 31. December 2014, 16:46

Tesla Boy / The Universe Made of Darkness (Night Version) [Limited Cardboard Sleeve CD Edition]

Used drive  : PIONEER DVD-RW  DVR-111D   Adapter: 0  ID: 0

Read mode               : Secure
Utilize accurate stream : Yes
Defeat audio cache      : Yes
Make use of C2 pointers : No

Read offset correction                      : 48
Overread into Lead-In and Lead-Out          : No
Fill up missing offset samples with silence : Yes
Delete leading and trailing silent blocks   : No
Null samples used in CRC calculations       : Yes
Used interface                              : Native Win32 interface for Win NT & 2000
Gap handling                                : Appended to previous track

Used output format              : User Defined Encoder
Selected bitrate                : 1024 kBit/s
Quality                         : High
Add ID3 tag                     : No
Command line compressor         : C:\Program Files\Exact Audio Copy\Flac\flac.exe
Additional command line options : -8 -V -T "ARTIST=%artist%" -T "TITLE=%title%" -T "ALBUM=%albumtitle%" -T "DATE=%year%" -T "TRACKNUMBER=%tracknr%" -T "GENRE=%genre%" -T "PERFORMER=%albuminterpret%" -T "COMPOSER=%composer%" %haslyrics%--tag-from-file=LYRICS="%lyricsfile%"%haslyrics% -T "ALBUMARTIST=%albumartist%" -T "DISCNUMBER=%cdnumber%" -T "TOTALDISCS=%totalcds%" -T "TOTALTRACKS=%numtracks%" -T "COMMENT=%comment%" %source% -o %dest%

TOC of the extracted CD

     Track |   Start  |  Length  | Start sector | End sector
    ---------------------------------------------------------
        1  |  0:00.00 |  5:41.56 |         0    |    25630
        2  |  5:41.56 |  3:49.16 |     25631    |    42821
        3  |  9:30.72 |  6:26.00 |     42822    |    71771
        4  | 15:56.72 |  6:14.66 |     71772    |    99887
        5  | 22:11.63 |  7:25.25 |     99888    |   133287
        6  | 29:37.13 |  5:23.02 |    133288    |   157514
        7  | 35:00.15 |  6:32.00 |    157515    |   186914
        8  | 41:32.15 |  5:33.62 |    186915    |   211951
        9  | 47:06.02 |  6:45.50 |    211952    |   242376
       10  | 53:51.52 |  3:40.26 |    242377    |   258902
       11  | 57:32.03 |  7:17.00 |    258903    |   291677

Track  1

     Filename G:\2014.11.19 - The Universe Made of Darkness (Night Version) [Limited Cardboard Sleeve CD Edition]\01. Undetected [Shur-I-Kan Remix].wav

     Pre-gap length  0:00:02.00

     Peak level 100.0 %
     Extraction speed 4.8 X
     Track quality 100.0 %
     Test CRC 7AA11F5D
     Copy CRC 7AA11F5D
     Track not present in AccurateRip database
     Copy OK

Track  2

     Filename G:\2014.11.19 - The Universe Made of Darkness (Night Version) [Limited Cardboard Sleeve CD Edition]\02. Stars [Killy Cakes Remix].wav

     Peak level 99.9 %
     Extraction speed 5.0 X
     Track quality 100.0 %
     Test CRC 5EAF167E
     Copy CRC 5EAF167E
     Track not present in AccurateRip database
     Copy OK

Track  3

     Filename G:\2014.11.19 - The Universe Made of Darkness (Night Version) [Limited Cardboard Sleeve CD Edition]\03. Dream Machine [Mujuice Acid Pop Remix].wav

     Peak level 98.9 %
     Extraction speed 5.7 X
     Track quality 100.0 %
     Test CRC 7C712FBA
     Copy CRC 7C712FBA
     Track not present in AccurateRip database
     Copy OK

Track  4

     Filename G:\2014.11.19 - The Universe Made of Darkness (Night Version) [Limited Cardboard Sleeve CD Edition]\04. 1991 [Xinobi Remix].wav

     Peak level 98.8 %
     Extraction speed 5.8 X
     Track quality 100.0 %
     Test CRC 37C9EE52
     Copy CRC 37C9EE52
     Track not present in AccurateRip database
     Copy OK

Track  5

     Filename G:\2014.11.19 - The Universe Made of Darkness (Night Version) [Limited Cardboard Sleeve CD Edition]\05. Invisible [Sportloto Remix].wav

     Peak level 98.8 %
     Extraction speed 6.4 X
     Track quality 100.0 %
     Test CRC 105D2E43
     Copy CRC 105D2E43
     Track not present in AccurateRip database
     Copy OK

Track  6

     Filename G:\2014.11.19 - The Universe Made of Darkness (Night Version) [Limited Cardboard Sleeve CD Edition]\06. Broken Doll [Pioneerball Remix].wav

     Peak level 100.0 %
     Extraction speed 6.2 X
     Track quality 99.9 %
     Test CRC AE548F19
     Copy CRC AE548F19
     Track not present in AccurateRip database
     Copy OK

Track  7

     Filename G:\2014.11.19 - The Universe Made of Darkness (Night Version) [Limited Cardboard Sleeve CD Edition]\07. M.C.H.T.E. [Cream Soda Remix].wav

     Peak level 98.9 %
     Extraction speed 7.4 X
     Track quality 100.0 %
     Test CRC 2EBDC097
     Copy CRC 2EBDC097
     Track not present in AccurateRip database
     Copy OK

Track  8

     Filename G:\2014.11.19 - The Universe Made of Darkness (Night Version) [Limited Cardboard Sleeve CD Edition]\08. Paraffin [Cosmonaut Grechko Remix].wav

     Peak level 100.0 %
     Extraction speed 6.8 X
     Track quality 100.0 %
     Test CRC 603D23A9
     Copy CRC 603D23A9
     Track not present in AccurateRip database
     Copy OK

Track  9

     Filename G:\2014.11.19 - The Universe Made of Darkness (Night Version) [Limited Cardboard Sleeve CD Edition]\09. Split [7he Myriads Remix].wav

     Peak level 99.9 %
     Extraction speed 5.3 X
     Track quality 99.9 %
     Test CRC 475A507A
     Copy CRC 475A507A
     Track not present in AccurateRip database
     Copy OK

Track 10

     Filename G:\2014.11.19 - The Universe Made of Darkness (Night Version) [Limited Cardboard Sleeve CD Edition]\10. Fantasy [Pioneerball Remix].wav

     Peak level 100.0 %
     Extraction speed 5.4 X
     Track quality 100.0 %
     Test CRC CE746A40
     Copy CRC CE746A40
     Track not present in AccurateRip database
     Copy OK

Track 11

     Filename G:\2014.11.19 - The Universe Made of Darkness (Night Version) [Limited Cardboard Sleeve CD Edition]\11. Dream Machine [Cable Toy Remix].wav

     Peak level 98.8 %
     Extraction speed 6.2 X
     Track quality 100.0 %
     Test CRC 1F1E77F5
     Copy CRC 1F1E77F5
     Track not present in AccurateRip database
     Copy OK

None of the tracks are present in the AccurateRip database

No errors occurred

End of status report

---- CUETools DB Plugin V2.1.3

[CTDB TOCID: pmGAeHnElk1oJSlMuk9bFUa_9O0-] disk not present in database, Submit result: pmGAeHnElk1oJSlMuk9bFUa_9O0- has been uploaded

==== Log checksum 36A1B108EED1DA35AFAA8C4E54A5C5DC5B8CE1DF248FE7D872BF7F62C93EC5DA ====
#77Продолжительность: 00:47:13
Треклист:

01. Sometimes (5:44)
02. Compromise (4:25)
03. Different (3:46)
04. Glow (4:37)
05. Innocence (3:21)
06. Reputation (4:12)
07. Remedy (5:03)
08. We (3:36)
09. Memories (4:55)
10. U (4:15)
11. Gimn (1:44)
12. Your Age Outro (1:36)

Код: Выделить всё
-----------------------

DON'T MODIFY THIS FILE

-----------------------

PERFORMER: auCDtect Task Manager, ver. 1.6.0 RC1 build 1.6.0.1
Copyright (c) 2008-2010 y-soft. All rights reserved
[url=http://y-soft.org]http://y-soft.org[/url]

ANALYZER: auCDtect: CD records authenticity detector, version 0.8.2
Copyright (c) 2004 Oleg Berngardt. All rights reserved.
Copyright (c) 2004 Alexander Djourik. All rights reserved.

FILE: 12. Your Age Outro.flac
  Size: 8644138 Hash: 322D2BA9A345683B43868E9484BFEA5F Accuracy: -m0
  Conclusion: CDDA 100%
  Signature: 685FC9F3E2A029F712ADA81EBE7713EF1933BE52
FILE: 11. Gimn.flac
  Size: 7365606 Hash: D51C44703B09473273B3931B2E47C354 Accuracy: -m0
  Conclusion: CDDA 100%
  Signature: 8E874767F803B5BD8C5A548C5C46D04E86DC61B8
FILE: 10. U.flac
  Size: 27694435 Hash: 2D4850D6781BCD9500AA7937DC8C4F0E Accuracy: -m0
  Conclusion: CDDA 100%
  Signature: A12F164078137E7EC2EC5A635575B413E9670379
FILE: 09. Memories.flac
  Size: 28101086 Hash: 6A5B149EA02FF1C60208D995699BCDD6 Accuracy: -m0
  Conclusion: CDDA 100%
  Signature: B661843B7DCFF0C8C4EA212FA9E2AA330B8E4A7F
FILE: 08. We.flac
  Size: 19073123 Hash: 39C89350249F38264F748B387994848C Accuracy: -m0
  Conclusion: CDDA 100%
  Signature: 042B6D8333380E6681F1F7F731E68DF4DC21D6A9
FILE: 07. Remedy.flac
  Size: 38221030 Hash: 06ECCF5D7177C5D7B07DD6A13A3D7912 Accuracy: -m0
  Conclusion: CDDA 99%
  Signature: D2938AD471C97F64F565D997A955FF43283E91A0
FILE: 06. Reputation.flac
  Size: 27502332 Hash: 6ACBF192B5B2B45048668DF3E8F35231 Accuracy: -m0
  Conclusion: CDDA 99%
  Signature: 3EA0EE8233869CBB49ADC7219C16ACCB7C68BE15
FILE: 05. Innocence.flac
  Size: 20960368 Hash: FAB7763EDE5A3E858D738D7D66012BC9 Accuracy: -m0
  Conclusion: CDDA 100%
  Signature: 269A7EA8AF595745701ED469D492451346B4BACF
FILE: 04. Glow.flac
  Size: 30508973 Hash: 71921EDB25EBA2A22FB991DA9FF839C3 Accuracy: -m0
  Conclusion: CDDA 99%
  Signature: 1E1CBDB36CEB799D9788770CB05048CB3CD6A5B7
FILE: 03. Different.flac
  Size: 25061101 Hash: DF1BA248C4A4C3F84879263CD509C2ED Accuracy: -m0
  Conclusion: CDDA 100%
  Signature: BC3A5376D68278686B64045B5EAC70C9CBCEF208
FILE: 02. Compromise.flac
  Size: 31038998 Hash: BCBF56A1BA42FBEEFBE680778575DB97 Accuracy: -m0
  Conclusion: CDDA 100%
  Signature: AD91DF927602EF6F59F528DE5E12F723172ABF6B
FILE: 01. Sometimes.flac
  Size: 34781917 Hash: 6416AF01AC7767C936146F183E830102 Accuracy: -m0
  Conclusion: CDDA 100%
  Signature: 3C396ABCC8548F65715364A442E488E32802AE75

Не забывайте говорить Спасибо. Не уходите с раздачи!   
Торрент: Зарегистрирован [10 фев 2019, 21:02]
Статус:
Проверен
 
.torrent скачан: 0 раз
Хэш: c27f003e433afd1200bbf543e505dfc72a135504
Размер: 1.96 ГБ (2 100 300 634 байт)
   Стать Автором раздачи
   
Цитата

Вернуться в Electronic

Кто сейчас на конференции

Сейчас эту тему просматривают: нет зарегистрированных пользователей и гости: 1