Beatless | Без пульса | Слабый удар [2018, TV, 24 эп.] BDrip HEVC 10-bit 1080p raw

 Статистика раздачи 
Размер: 42.3 ГБ   |  Зарегистрирован: 10 фев 2019, 18:05   |   .torrent скачан: 0 раз
Сидеров: 4  [ 0 байт/сек ]     Личеров: 0  [ 0 байт/сек ]  
  
Аватара пользователя
*
*
 
Раздал: 141.85 ГБ
Скачал: 6.16 ГБ
Ратио: 23.021
Сообщения: 249364
Стаж: 6 лет 11 месяцев 18 дней

Beatless | Без пульса | Слабый удар

Жанр: приключения
Тип: ТВ
Продолжительность: 24 эп. по 25 мин.
Количество серий: 24 из 24
Выпуск: c 13.01.2018 по 30.06.2018; с 26.09.2018 по 29.09.2018
Производство: студия Studio Barcelona / ディオメディア
Автор оригинала: Хасэ Сатоси
Режиссер: Мидзусима Сэйдзи
Ссылки: World-Art, ANN, AniDB, MyAnimeList, Сетка вещания
Описание:
Япония, 2105 год. Большая часть рабочих обязанностей возложена на человекоподобных андроидов hIE, ставших привычной частью человеческого общества. Эндо Арато — обычный 17-летний парень — испытывает к hIE симпатию, в то время как другие люди считают их лишь вещами. Однажды ночью происходит событие, которое сильно меняет жизнь Эндо: он становится свидетелем «нападения вишнёвых лепестков», заставляющих андроидов и машин выходить из-под контроля и атаковать людей. Единственное, что его спасает, — появление таинственной красотки, девушки-андроида Лации. © KG-Portal
Качество видео: BDrip
Видео: HEVC (Main 10@L4@Main) 10 bit, 1920x1080 (16:9), ~23.976 fps, ~7876 kbps
Аудио: FLAC, 2 ch, 48 kHz, 24 bit, ~1413 kbps | Звук: Японский
Язык озвучки: Японский
Субтитры: Русские
Перевод: Sovetromantica (TV 01-20); 21-24 серии (спешалы) - БЕЗ ПЕРЕВОДА!

Скриншоты:



01. Contract | Контракт
02. Analog Hack | Аналоговый взлом
03. You`ll Be Mine | Ты будешь моей
04. Automatic World | Автоматический мир
05. Tools for Outsourcers | Инструменты аутсорсинга
06. Higgins Village | Деревня Хиггинса
07. Boy Meets Pornography | Мальчик знакомится с порнографией
08. Awakening of Sleeping Beauty | Пробуждение спящей красавицы
09. My Whereabouts | Моё местонахождение
10. Dwellings and Surroundings | Дом и окружение
11. Dystopia Game | Дистопичная игра
12. Slumber of Human | Сон человека
13. The Prayer Within | Внутрення молитва
14. An Answer to Survive | Ответ на жизнь
15. Edge Line | Предел
16. Plus One | Плюс Один
17. A Reason of Our Own | Наша Причина
18. Protocol of Love | Протокол Любви
19. Paper Tiger | Бумажный Тигр
20. Our Error World | Мир Ошибок
21. Higgins' Silo
22. Pygmalion
23. Beatless
24. Boy Meets Girl
Код: Выделить всё
General
Unique ID                   : 108401959414069411183584611190091345469 (0x518D753D4C3E6169BB44205C1578EE3D)
Complete name               : Beatless [BDRip 1920x1080 HEVC FLAC]\[Beatrice-Raws] Beatless 01 [BDRip 1920x1080 HEVC FLAC].mkv
Format                      : Matroska
Format version              : Version 4
File size                   : 1.59 GiB
Duration                    : 24 min 28 s
Overall bit rate mode       : Variable
Overall bit rate            : 9 291 kb/s
Encoded date                : UTC 2018-12-24 22:09:37
Writing application         : mkvmerge v29.0.0 ('Like It Or Not') 64-bit
Writing library             : libebml v1.3.6 + libmatroska v1.4.9

Video
ID                          : 1
Format                      : HEVC
Format/Info                 : High Efficiency Video Coding
Format profile              : Main 10@L4@Main
Codec ID                    : V_MPEGH/ISO/HEVC
Duration                    : 24 min 28 s
Bit rate                    : 7 876 kb/s
Width                       : 1 920 pixels
Height                      : 1 080 pixels
Display aspect ratio        : 16:9
Frame rate mode             : Constant
Frame rate                  : 23.976 (24000/1001) FPS
Color space                 : YUV
Chroma subsampling          : 4:2:0
Bit depth                   : 10 bits
Bits/(Pixel*Frame)          : 0.158
Stream size                 : 1.35 GiB (85%)
Title                       : BDrip by Jensen
Writing library             : x265 2.9:[Windows][MSVC 1915][64 bit] 10bit
Encoding settings           : cpuid=1176575 / frame-threads=16 / numa-pools=16,16 / wpp / no-pmode / no-pme / no-psnr / no-ssim / log-level=2 / csv / csv-log-level=2 / input-csp=1 / input-res=1920x1080 / interlace=0 / total-frames=35200 / level-idc=0 / high-tier=1 / uhd-bd=0 / ref=4 / no-allow-non-conformance / no-repeat-headers / annexb / no-aud / no-hrd / info / hash=0 / no-temporal-layers / open-gop / min-keyint=23 / keyint=240 / gop-lookahead=0 / bframes=9 / b-adapt=2 / b-pyramid / bframe-bias=0 / rc-lookahead=20 / lookahead-slices=6 / scenecut=40 / radl=0 / no-intra-refresh / ctu=64 / min-cu-size=8 / no-rect / no-amp / max-tu-size=32 / tu-inter-depth=2 / tu-intra-depth=2 / limit-tu=0 / rdoq-level=2 / dynamic-rd=0.00 / no-ssim-rd / signhide / no-tskip / nr-intra=0 / nr-inter=0 / no-constrained-intra / strong-intra-smoothing / max-merge=2 / limit-refs=3 / limit-modes / me=2 / subme=5 / merange=48 / temporal-mvp / weightp / weightb / no-analyze-src-pics / deblock=1:-1 / no-sao / no-sao-non-deblock / rd=4 / no-early-skip / no-rskip / no-fast-intra / no-tskip-fast / no-cu-lossless / no-b-intra / no-splitrd-skip / rdpenalty=0 / psy-rd=2.00 / psy-rdoq=2.00 / no-rd-refine / no-lossless / cbqpoffs=-2 / crqpoffs=-2 / rc=crf / crf=15.0 / qcomp=0.72 / qpstep=4 / stats-write=0 / stats-read=0 / ipratio=1.40 / pbratio=1.30 / aq-mode=3 / aq-strength=0.86 / no-cutree / zone-count=0 / no-strict-cbr / qg-size=32 / no-rc-grain / qpmax=69 / qpmin=0 / no-const-vbv / sar=1 / overscan=0 / videoformat=5 / range=0 / colorprim=1 / transfer=1 / colormatrix=1 / chromaloc=0 / display-window=0 / max-cll=0,0 / min-luma=0 / max-luma=1023 / log2-max-poc-lsb=8 / vui-timing-info / vui-hrd-info / slices=1 / no-opt-qp-pps / no-opt-ref-list-length-pps / no-multi-pass-opt-rps / scenecut-bias=0.05 / no-opt-cu-delta-qp / no-aq-motion / no-hdr / no-hdr-opt / no-dhdr10-opt / no-idr-recovery-sei / analysis-reuse-level=5 / scale-factor=0 / refine-intra=0 / refine-inter=0 / refine-mv=0 / no-limit-sao / ctu-info=0 / no-lowpass-dct / refine-mv-type=0 / copy-pic=1 / max-ausize-factor=1.0 / no-dynamic-refine / no-single-sei
Language                    : Japanese
Default                     : Yes
Forced                      : No
Color range                 : Limited
Color primaries             : BT.709
Transfer characteristics    : BT.709
Matrix coefficients         : BT.709

Audio
ID                          : 2
Format                      : FLAC
Format/Info                 : Free Lossless Audio Codec
Codec ID                    : A_FLAC
Duration                    : 24 min 28 s
Bit rate mode               : Variable
Bit rate                    : 1 413 kb/s
Channel(s)                  : 2 channels
Channel layout              : L R
Sampling rate               : 48.0 kHz
Frame rate                  : 11.719 FPS (4096 SPF)
Bit depth                   : 24 bits
Compression mode            : Lossless
Stream size                 : 247 MiB (15%)
Writing library             : libFLAC 1.3.1 (UTC 2014-11-25)
Language                    : Japanese
Default                     : Yes
Forced                      : No

Menu
00:00:00.000                : en:Part A
00:10:04.020                : en:Part B
00:20:41.073                : en:ED
00:22:11.038                : en:Part C
00:23:57.061                : en:Next
Время раздачи:
круглосуточно
Не забывайте говорить Спасибо. Не уходите с раздачи!   
Торрент: Зарегистрирован [10 фев 2019, 18:05]
Статус:
Проверен
 
.torrent скачан: 0 раз
Хэш: 7683c0432ecc9f678317b52f271c460d425a86d9
Размер: 42.3 ГБ (45 424 258 891 байт)
   Стать Автором раздачи
   
Цитата

Вернуться в Аниме, Японские мультфильмы

Кто сейчас на конференции

Сейчас эту тему просматривают: нет зарегистрированных пользователей и гости: 1