Island | Остров [2018, TV, 12 эп.] WEB-DL 720p raw

 Статистика раздачи 
Размер: 16.04 ГБ   |  Зарегистрирован: 10 фев 2019, 17:55   |   .torrent скачан: 0 раз
Сидеров: 4  [ 0 байт/сек ]     Личеров: 1  [ 0 байт/сек ]  
  
Аватара пользователя
*
*
 
Раздал: 141.85 ГБ
Скачал: 5 ГБ
Ратио: 28.371
Сообщения: 100318
Стаж: 6 лет 5 месяцев 19 дней
СообщениеДобавлено: 10 фев 2019, 17:55


Island | Остров

Жанр: приключения
Тип: ТВ
Продолжительность: 12 эп. по 25 мин.
Количество серий: 12 из 12
Выпуск: c 01.07.2018 по 16.09.2018
Производство: студия Feel
Автор оригинала: ГО
Режиссер: Кавагути Кэйитиро
Ссылки: World-Art, ANN, AniDB, MyAnimeList, Сетка вещания
Описание:
Уращима — удалённый от материка остров, обитатели которого жили беззаботной жизнью, пока за пять лет до начала основного действия три влиятельные местные семьи не стали жертвами череды несчастных случаев, приведшей ко взаимным подозрениям. В результате жители острова прекратили все контакты с материком, и это стало началом упадка. Ключ к спасению острова — три девочки, каждая из которых принадлежит к одной из влиятельных семей, но все они связаны старинными традициями и мучимы противоречиями. В один прекрасный день волны выбрасывают на берег Уращимы парня, который утверждает, что прибыл из будущего, и именно его действия решат дальнейшую судьбу всего острова. © KG-Portal
Качество видео: BDrip
Видео: AVC (High@L5), 1920x1080 (16:9), ~23.976 fps, ~4517 kbps
Аудио: FLAC, 2 ch, 48 kHz, 24 bit, ~1357 kbps | Звук: Японский
Язык озвучки: Японский
Субтитры: Русские
Перевод: SovetRomatica

01. We Meet Again | Мы снова встретились
02. I Don`t Want You to Feel Bad | Не хочу, чтобы ты чувствовала себя плохо
03. The Right Way to Spin Dreams | Правильный способ спрятать мечту
04. This World Is Full of Secrets | Этот мир полон секретов
05. That`s Why I Trust You | Вот почему я верю тебе
06. As Long As You Are There | Пока ты здесь
07. I Want to Keep Liking You | Я хочу продолжать любить тебя
08. Love Me When We Meet Again | Люби меня, когда мы встретимся снова
09. I Got to See You Again | Я должен снова увидеть тебя
10. I Don`t Want to Grieve Anymore | Я больше не хочу печалиться
11. We`ve Met Again, but You... | Мы снова встретились, но ты...
12. Holding Hands to Tomorrow | Держимся за руки ради завтра
Код: Выделить всё
General
Unique ID                   : 36355550914859805184830526665336036089 (0x1B59D30CDF4084F357879D2277D81AF9)
Complete name               : Island (BD 1920x1080 x.264 Flac)\[Moozzi2] Island - 01 (BD 1920x1080 x.264 Flac).mkv
Format                      : Matroska
Format version              : Version 4
File size                   : 995 MiB
Duration                    : 23 min 40 s
Overall bit rate mode       : Variable
Overall bit rate            : 5 876 kb/s
Encoded date                : UTC 2019-01-14 02:38:38
Writing application         : mkvmerge v28.2.0 ('The Awakening') 64-bit
Writing library             : libebml v1.3.6 + libmatroska v1.4.9

Video
ID                          : 1
Format                      : AVC
Format/Info                 : Advanced Video Codec
Format profile              : High@L5
Format settings             : CABAC / 5 Ref Frames
Format settings, CABAC      : Yes
Format settings, ReFrames   : 5 frames
Codec ID                    : V_MPEG4/ISO/AVC
Duration                    : 23 min 40 s
Bit rate                    : 4 517 kb/s
Width                       : 1 920 pixels
Height                      : 1 080 pixels
Display aspect ratio        : 16:9
Frame rate mode             : Constant
Frame rate                  : 23.976 (24000/1001) FPS
Color space                 : YUV
Chroma subsampling          : 4:2:0
Bit depth                   : 8 bits
Scan type                   : Progressive
Bits/(Pixel*Frame)          : 0.091
Stream size                 : 765 MiB (77%)
Writing library             : x264 core 155 r2901 7d0ff22
Encoding settings           : cabac=1 / ref=5 / deblock=1:1:1 / analyse=0x3:0x113 / me=umh / subme=9 / psy=1 / psy_rd=1.00:0.00 / mixed_ref=1 / me_range=32 / chroma_me=1 / trellis=2 / 8x8dct=1 / cqm=0 / deadzone=21,11 / fast_pskip=0 / chroma_qp_offset=-2 / threads=24 / lookahead_threads=2 / sliced_threads=0 / nr=0 / decimate=1 / interlaced=0 / bluray_compat=0 / stitchable=1 / constrained_intra=0 / bframes=3 / b_pyramid=2 / b_adapt=2 / b_bias=0 / direct=1 / weightb=1 / open_gop=0 / weightp=1 / keyint=240 / keyint_min=23 / scenecut=40 / intra_refresh=0 / rc_lookahead=40 / rc=crf / mbtree=1 / crf=16.0 / qcomp=0.62 / qpmin=0 / qpmax=69 / qpstep=4 / ip_ratio=1.40 / aq=1:1.00
Language                    : Japanese
Default                     : Yes
Forced                      : No

Audio
ID                          : 2
Format                      : FLAC
Format/Info                 : Free Lossless Audio Codec
Codec ID                    : A_FLAC
Duration                    : 23 min 40 s
Bit rate mode               : Variable
Bit rate                    : 1 357 kb/s
Channel(s)                  : 2 channels
Channel layout              : L R
Sampling rate               : 48.0 kHz
Frame rate                  : 11.719 FPS (4096 SPF)
Bit depth                   : 24 bits
Compression mode            : Lossless
Stream size                 : 230 MiB (23%)
Writing library             : libFLAC 1.3.2 (UTC 2017-01-01)
Language                    : Japanese
Default                     : Yes
Forced                      : No
Время раздачи:
круглосуточно
Не забывайте говорить Спасибо. Не уходите с раздачи!   
Торрент: Зарегистрирован [10 фев 2019, 17:55] Для скачивания .torrent
необходима регистрация
Или скачать с помощью
MediaGet
Статус:
Проверен
 
.torrent скачан: 0 раз
Хэш: a2fb4b1fd7ff17adc676d2d51a8e99cd38e39579
Размер: 16.04 ГБ (17 219 601 782 байт)
   Стать Автором раздачи
   
Цитата

Вернуться в Аниме, Японские мультфильмы

Кто сейчас на конференции

Сейчас эту тему просматривают: нет зарегистрированных пользователей и гости: 1