Tonari no Kyuuketsuki-san | Ms. Vampire Who Lives in My Neighborhood. | Госпожа Вампир по соседству [2018, TV, 6 из 12 эп.] BDrip 1080p raw

 Статистика раздачи 
Размер: 8.58 ГБ   |  Зарегистрирован: 10 фев 2019, 17:53   |   .torrent скачан: 0 раз
Сидеров: 4  [ 0 байт/сек ]     Личеров: 1  [ 0 байт/сек ]  
  
Аватара пользователя
*
*
 
Раздал: 141.85 ГБ
Скачал: 6.16 ГБ
Ратио: 23.021
Сообщения: 249364
Стаж: 6 лет 11 месяцев 18 дней

Tonari no Kyuuketsuki-san
Ms. Vampire Who Lives in My Neighborhood.
Госпожа Вампир по соседству
となりの吸血鬼さん

Жанр: комедия, повседневность
Тип: ТВ
Продолжительность: 12 эп. по 25 мин.
Количество серий: 6 из 12
Выпуск: c 05.10.2018 по 21.12.2018
Автор оригинала: Амато
Режиссер: Акитая Нориаки
Ссылки: World-Art, ANN, AniDB, MyAnimeList, Сетка вещания
Описание:
Любовь нечаянно нагрянет, когда её совсем не ждёшь! Акари Амано с первого взгляда влюбляется в девушку-вампира Софи Твайлайт, которая спасает её из беды. Вскоре это слепое увлечение перетекает в совместное проживание: Софи приходится принять свою новую соседку. А Софи и сама не является типичным представителем расы вампиров — людей она не трогает, ведь ей привычнее заказать кровь и аниме-товары в интернет-магазинах. Так и начинается современная вампирская комедия, которую определённо стоит посмотреть!
© crunchyroll
Качество видео: BDrip
Видео: AVC (High@L4), 1920x1080 (16:9), ~23.976 fps, ~5994 kbps
Аудио: FLAC, 2 ch, 48 kHz, 24 bit, ~1300 kbps | Звук: Японский
Язык озвучки: Японский
Субтитры: Русские
Перевод: CrunchyRoll

Скриншоты:



01. Ordinary Citizen of the Dark
02. Akari`s Friend
03. The Vampire Goes to School
04. Sophie and Eri
05. Vampire Cooking
06. Interview with the Vampire
07. Summer Break Spent with a Vampire
08. The Last Day of Summer Break
09. Vampire vs Vampire Hunter
10. The Vampire and the End of the Year
11. Cold Season
12. The Vampire and the Changing Seasons
Код: Выделить всё
General
Unique ID                   : 175800506460374124070523168259137753276 (0x8441F22AA260C45BDB371886B48250BC)
Complete name               : Tonari no Kyuuketsuki-san (BDRip 1920x1080 x264 FLAC)\[ReinForce] Tonari no Kyuuketsuki-san 01 (BDRip 1920x1080 x264 FLAC).mkv
Format                      : Matroska
Format version              : Version 4
File size                   : 1.21 GiB
Duration                    : 23 min 41 s
Overall bit rate mode       : Variable
Overall bit rate            : 7 296 kb/s
Encoded date                : UTC 2019-01-01 17:22:04
Writing application         : mkvmerge v29.0.0 ('Like It Or Not') 64-bit
Writing library             : libebml v1.3.6 + libmatroska v1.4.9

Video
ID                          : 1
Format                      : AVC
Format/Info                 : Advanced Video Codec
Format profile              : High@L4
Format settings             : CABAC / 4 Ref Frames
Format settings, CABAC      : Yes
Format settings, ReFrames   : 4 frames
Codec ID                    : V_MPEG4/ISO/AVC
Duration                    : 23 min 41 s
Bit rate                    : 5 994 kb/s
Width                       : 1 920 pixels
Height                      : 1 080 pixels
Display aspect ratio        : 16:9
Frame rate mode             : Constant
Frame rate                  : 23.976 (24000/1001) FPS
Color space                 : YUV
Chroma subsampling          : 4:2:0
Bit depth                   : 8 bits
Scan type                   : Progressive
Bits/(Pixel*Frame)          : 0.121
Stream size                 : 1 015 MiB (82%)
Writing library             : x264 core 152
Encoding settings           : opencl=1 / cabac=1 / ref=4 / deblock=1:-2:-2 / analyse=0x3:0x113 / me=umh / subme=9 / psy=1 / psy_rd=0.70:0.00 / mixed_ref=0 / me_range=32 / chroma_me=1 / trellis=2 / 8x8dct=1 / cqm=0 / deadzone=21,11 / fast_pskip=1 / chroma_qp_offset=-2 / threads=8 / lookahead_threads=1 / sliced_threads=0 / nr=0 / decimate=1 / interlaced=0 / bluray_compat=0 / constrained_intra=0 / bframes=9 / b_pyramid=2 / b_adapt=2 / b_bias=0 / direct=3 / weightb=1 / open_gop=0 / weightp=2 / keyint=250 / keyint_min=23 / scenecut=40 / intra_refresh=0 / rc_lookahead=40 / rc=crf / mbtree=1 / crf=16.0 / qcomp=0.70 / qpmin=10 / qpmax=20 / qpstep=4 / ip_ratio=1.40 / aq=1:1.00
Default                     : Yes
Forced                      : No

Audio
ID                          : 2
Format                      : FLAC
Format/Info                 : Free Lossless Audio Codec
Codec ID                    : A_FLAC
Duration                    : 23 min 41 s
Bit rate mode               : Variable
Bit rate                    : 1 300 kb/s
Channel(s)                  : 2 channels
Channel layout              : L R
Sampling rate               : 48.0 kHz
Frame rate                  : 10.417 FPS (4608 SPF)
Bit depth                   : 24 bits
Compression mode            : Lossless
Stream size                 : 220 MiB (18%)
Writing library             : Lavf57.83.100
Language                    : Japanese
Default                     : Yes
Forced                      : No
Время раздачи:
круглосуточно
Не забывайте говорить Спасибо. Не уходите с раздачи!   
Торрент: Зарегистрирован [10 фев 2019, 17:53]
Статус:
Проверен
 
.torrent скачан: 0 раз
Хэш: e223f8323de53ad6e1ae730145ccd5b4001d20b7
Размер: 8.58 ГБ (9 213 601 138 байт)
   Стать Автором раздачи
   
Цитата
  • Похожие торренты
    Ответы
    Просмотры
    Последнее сообщение

Вернуться в Аниме, Японские мультфильмы

Кто сейчас на конференции

Сейчас эту тему просматривают: нет зарегистрированных пользователей и гости: 1