Zombieland Saga | Zombie Land Saga | Зомбиленд. Сага [2018, TV, 4 из 12 эп.] BDrip 1080p raw

 Статистика раздачи 
Размер: 6.12 ГБ   |  Зарегистрирован: 10 фев 2019, 17:50   |   .torrent скачан: 0 раз
Сидеров: 4  [ 0 байт/сек ]     Личеров: 0  [ 0 байт/сек ]  
  
Аватара пользователя
*
*
 
Раздал: 141.85 ГБ
Скачал: 6.16 ГБ
Ратио: 23.021
Сообщения: 249364
Стаж: 6 лет 11 месяцев 18 дней

Zombieland Saga | Zombie Land Saga | Зомбиленд. Сага | ゾンビランドサガ

Жанр: приключения
Тип: ТВ
Продолжительность: 12 эп. по 25 мин.
Количество серий: 4 из 12
Выпуск: c 04.10.2018 по 20.12.2018
Производство: студия MAPPA
Режиссер: Сакай Мунэхиса
Ссылки: World-Art, ANN, AniDB, MyAnimeList, Сетка вещания
Описание:
Жизнь семи девушек перевернулась с ног на голову, когда мир поразило странное и чудовищное явление – восставшие мертвецы. Героиням предстоит приспосабливаться к новой реальности, и для каждой из них этот процесс будет по-своему трудным. Девушек с разнообразными историями и характерами объединяет лишь одно – твердое стремление выжить.
© crunchyroll
Качество видео: BDrip
Видео: AVC (High@L4), 1920x1080 (16:9), ~23.976 fps, ~7143 kbps
Аудио: FLAC, 2 ch, 48 kHz, 24 bit, ~1471 kbps | Звук: Японский
Язык озвучки: Японский
Субтитры: Русские
Перевод: CrunchyRoll

Скриншоты:



01. Good Morning Saga
02. I Love Hip Hop Saga
03. Dead or Live Saga
04. Warming Dead Saga
05. The Nice Bird Saga in Your Heart
06. Because It`s Sentimental Saga
07. But It`s Zombiemental Saga
08. Go Go Neverland Saga
09. Though My Life May Have Ended Once by Some Twist of Fate I Have Risen, and If Song and Dance Are to Be My Fate, Then Carrying the Memories of My Comrades in My Heart As I Sally Forth Shall Be My Saga
10. No Zombie No Idol Saga
11. A One-of-a-Kind Saga
12. Good Morning Again Saga
Код: Выделить всё
General
Unique ID                   : 223269313084329541266123973670755853087 (0xA7F81B06D82D6D383C9D10733DEF631F)
Complete name               : Zombie Land Saga (BDRip 1920x1080 x264 FLAC)\[ReinForce] Zombie Land Saga 01 (BDRip 1920x1080 x264 FLAC).mkv
Format                      : Matroska
Format version              : Version 4
File size                   : 1.43 GiB
Duration                    : 23 min 42 s
Overall bit rate mode       : Variable
Overall bit rate            : 8 617 kb/s
Encoded date                : UTC 2018-12-28 06:43:03
Writing application         : mkvmerge v29.0.0 ('Like It Or Not') 64-bit
Writing library             : libebml v1.3.6 + libmatroska v1.4.9

Video
ID                          : 1
Format                      : AVC
Format/Info                 : Advanced Video Codec
Format profile              : High@L4
Format settings             : CABAC / 4 Ref Frames
Format settings, CABAC      : Yes
Format settings, ReFrames   : 4 frames
Codec ID                    : V_MPEG4/ISO/AVC
Duration                    : 23 min 42 s
Bit rate                    : 7 143 kb/s
Width                       : 1 920 pixels
Height                      : 1 080 pixels
Display aspect ratio        : 16:9
Frame rate mode             : Constant
Frame rate                  : 23.976 (24000/1001) FPS
Color space                 : YUV
Chroma subsampling          : 4:2:0
Bit depth                   : 8 bits
Scan type                   : Progressive
Bits/(Pixel*Frame)          : 0.144
Stream size                 : 1.18 GiB (83%)
Writing library             : x264 core 152
Encoding settings           : opencl=1 / cabac=1 / ref=4 / deblock=1:-2:-2 / analyse=0x3:0x113 / me=umh / subme=9 / psy=1 / psy_rd=0.70:0.00 / mixed_ref=0 / me_range=32 / chroma_me=1 / trellis=2 / 8x8dct=1 / cqm=0 / deadzone=21,11 / fast_pskip=1 / chroma_qp_offset=-2 / threads=8 / lookahead_threads=1 / sliced_threads=0 / nr=0 / decimate=1 / interlaced=0 / bluray_compat=0 / constrained_intra=0 / bframes=9 / b_pyramid=2 / b_adapt=2 / b_bias=0 / direct=3 / weightb=1 / open_gop=0 / weightp=2 / keyint=250 / keyint_min=23 / scenecut=40 / intra_refresh=0 / rc_lookahead=40 / rc=crf / mbtree=1 / crf=16.0 / qcomp=0.70 / qpmin=10 / qpmax=20 / qpstep=4 / ip_ratio=1.40 / aq=1:1.00
Default                     : Yes
Forced                      : No

Audio
ID                          : 2
Format                      : FLAC
Format/Info                 : Free Lossless Audio Codec
Codec ID                    : A_FLAC
Duration                    : 23 min 42 s
Bit rate mode               : Variable
Bit rate                    : 1 471 kb/s
Channel(s)                  : 2 channels
Channel layout              : L R
Sampling rate               : 48.0 kHz
Frame rate                  : 10.417 FPS (4608 SPF)
Bit depth                   : 24 bits
Compression mode            : Lossless
Stream size                 : 249 MiB (17%)
Writing library             : Lavf57.83.100
Language                    : Japanese
Default                     : Yes
Forced                      : No
Время раздачи:
круглосуточно
Не забывайте говорить Спасибо. Не уходите с раздачи!   
Торрент: Зарегистрирован [10 фев 2019, 17:50]
Статус:
Проверен
 
.torrent скачан: 0 раз
Хэш: 0b5bc11119eb4c7f206a1a1220d25071c8690672
Размер: 6.12 ГБ (6 567 555 243 байт)
   Стать Автором раздачи
   
Цитата

Вернуться в Аниме, Японские мультфильмы

Кто сейчас на конференции

Сейчас эту тему просматривают: нет зарегистрированных пользователей и гости: 1