Koi to Uso | Love and Lies | Любовь и ложь [2017, TV, 12 эп.] BDrip 1080p raw

 Статистика раздачи 
Размер: 12.25 ГБ   |  Зарегистрирован: 10 фев 2019, 17:46   |   .torrent скачан: 0 раз
Сидеров: 4  [ 0 байт/сек ]     Личеров: 1  [ 0 байт/сек ]  
  
Аватара пользователя
*
*
 
Раздал: 141.85 ГБ
Скачал: 5 ГБ
Ратио: 28.371
Сообщения: 100318
Стаж: 6 лет 5 месяцев 19 дней

Koi to Uso | Love and Lies | Любовь и ложь | 恋と嘘

Жанр: романтика
Тип: ТВ
Продолжительность: 12 эп. по 25 мин.
Количество серий: 12 из 12
Выпуск: c 04.07.2017 по 19.09.2017
Производство: студия Liden Films / ライデンフィルム
Автор оригинала: Мусао
Режиссер: Такуно Сэйки
Ссылки: World-Art, ANN, AniDB, MyAnimeList, Сетка вещания
Описание:
В не столь далёком прошлом родители всегда решали судьбу своих детей. Особенно в семейном плане. Мнения своих отпрысков никто не спрашивал, ведь родители прекрасно понимали, какой человек подойдёт их драгоценному чаду. Порой люди даже с самого детства заранее знали, с кем им предстоит обручиться и прожить всю свою жизнь. Теперь мы сами хозяева своей судьбы, сами выбираем, с кем хотим быть вместе, и движет нами всё больше любовь, а не холодный расчёт. Но, как говорится, всё новое - это хорошо забытое старое.

Так случилось и в Японии. Проблема поиска спутника жизни была гениально решена правительством. Отныне можно жить и не переживать о делах любовных, а посвящать себя более важным вещам, ведь государство позаботится о тебе и обязательно найдёт подходящую пару. Но вот беда, Юкари Нэджима не знает, как ему теперь быть. Он по-настоящему влюбился в прекрасную девушку, буквально пылает от чувств к ней. Но у государства на его счёт совершенно другие планы, и суждено ему провести свою жизнь совсем не со своей избранницей.
Качество видео: BDrip
Видео: AVC (High@L4), 1920x1080 (16:9), ~23.976 fps, ~4860 kbps
Аудио: FLAC, 2 ch, 48 kHz, 24 bit, ~1370 kbps | Звук: Японский
Язык озвучки: Японский
Субтитры: Русские
Перевод: AniPlay (TV 01-12)

Скриншоты:



01. First Love
02. A Small Lie
03. Overlooked Love
04. The Science of Love
05. Risky Love
06. A Prison to Compel Love
07. A Silent Lie
08. Feelings Without Lies
09. So Bright It Doesn`t Seem Real
10. A Love to Give Everything For
11. I Don`t Care If It`s a Lie
12. Love and Lies
#1 Любовь и ложь - ТВ (12 эп.), адаптация манги, 2017
#2 Любовь и ложь OVA - OVA (1 эп.), адаптация манги, 2018
Код: Выделить всё
General
Unique ID                   : 101119345990158116215593504914114795697 (0x4C12E0AD02AC88895396D5F66DBED8B1)
Complete name               : Koi to Uso (BDRip 1920x1080 x264 FLAC)\[ReinForce] Koi to Uso - 01 (BDRip 1920x1080 x264 FLAC).mkv
Format                      : Matroska
Format version              : Version 4
File size                   : 1.04 GiB
Duration                    : 23 min 53 s
Overall bit rate mode       : Variable
Overall bit rate            : 6 233 kb/s
Encoded date                : UTC 2017-11-01 07:07:32
Writing application         : mkvmerge v9.6.0 ('Slave To Your Mind') 64bit
Writing library             : libebml v1.3.4 + libmatroska v1.4.8

Video
ID                          : 1
Format                      : AVC
Format/Info                 : Advanced Video Codec
Format profile              : High@L4
Format settings             : CABAC / 4 Ref Frames
Format settings, CABAC      : Yes
Format settings, ReFrames   : 4 frames
Codec ID                    : V_MPEG4/ISO/AVC
Duration                    : 23 min 53 s
Bit rate                    : 4 860 kb/s
Width                       : 1 920 pixels
Height                      : 1 080 pixels
Display aspect ratio        : 16:9
Frame rate mode             : Constant
Frame rate                  : 23.976 (24000/1001) FPS
Color space                 : YUV
Chroma subsampling          : 4:2:0
Bit depth                   : 8 bits
Scan type                   : Progressive
Bits/(Pixel*Frame)          : 0.098
Stream size                 : 830 MiB (78%)
Writing library             : x264 core 152
Encoding settings           : opencl=1 / cabac=1 / ref=4 / deblock=1:-2:-2 / analyse=0x3:0x113 / me=umh / subme=9 / psy=1 / psy_rd=0.70:0.00 / mixed_ref=0 / me_range=32 / chroma_me=1 / trellis=2 / 8x8dct=1 / cqm=0 / deadzone=21,11 / fast_pskip=1 / chroma_qp_offset=-2 / threads=8 / lookahead_threads=1 / sliced_threads=0 / nr=0 / decimate=1 / interlaced=0 / bluray_compat=0 / constrained_intra=0 / bframes=9 / b_pyramid=2 / b_adapt=2 / b_bias=0 / direct=3 / weightb=1 / open_gop=0 / weightp=2 / keyint=250 / keyint_min=23 / scenecut=40 / intra_refresh=0 / rc_lookahead=40 / rc=crf / mbtree=1 / crf=16.0 / qcomp=0.70 / qpmin=10 / qpmax=20 / qpstep=4 / ip_ratio=1.40 / aq=1:1.00
Default                     : Yes
Forced                      : No

Audio
ID                          : 2
Format                      : FLAC
Format/Info                 : Free Lossless Audio Codec
Codec ID                    : A_FLAC
Duration                    : 23 min 53 s
Bit rate mode               : Variable
Bit rate                    : 1 370 kb/s
Channel(s)                  : 2 channels
Channel layout              : L R
Sampling rate               : 48.0 kHz
Frame rate                  : 10.417 FPS (4608 SPF)
Bit depth                   : 24 bits
Compression mode            : Lossless
Stream size                 : 234 MiB (22%)
Writing library             : Lavf57.83.100
Language                    : Japanese
Default                     : Yes
Forced                      : No
Время раздачи:
круглосуточно
Не забывайте говорить Спасибо. Не уходите с раздачи!   
Торрент: Зарегистрирован [10 фев 2019, 17:46] Для скачивания .torrent
необходима регистрация
Или скачать с помощью
MediaGet
Статус:
Проверен
 
.torrent скачан: 0 раз
Хэш: 310a3097464978384a835a6849730698593de8f5
Размер: 12.25 ГБ (13 158 249 260 байт)
   Стать Автором раздачи
   
Цитата
  • Похожие торренты
    Ответы
    Просмотры
    Последнее сообщение

Вернуться в Аниме, Японские мультфильмы

Кто сейчас на конференции

Сейчас эту тему просматривают: нет зарегистрированных пользователей и гости: 1