Год Дракона / Year of the Dragon (1985) BDRip 720p | P, P2, A

 Статистика раздачи 
Размер: 11.27 ГБ   |  Зарегистрирован: 10 фев 2019, 16:30   |   .torrent скачан: 27 раз
Сидеров: 17  [ 0 байт/сек ]     Личеров: 8  [ 0 байт/сек ]  
  
Аватара пользователя
 
Раздал: 4.86 ТБ
Скачал: 185.14 ГБ
Ратио: 26.892
Сообщения: 220349
Стаж: 2 года 1 месяц 2 дня

Год Дракона

Year of the Dragon

«Китайская шкатулка, полная жестокостей»



Страна: США
Жанр: боевик, триллер, драма, криминал
Год выпуска: 1985
Продолжительность: 02:14:25
Перевод: Профессиональный (многоголосый, закадровый), 2 x Профессиональный (двухголосый, закадровый), 4 x Авторский, Оригинальный
Субтитры: русские, английские


Режиссер: Майкл Чимино / Michael Cimino


В ролях: Микки Рурк (Stanley White), Джон Лоун (Joey Tai), Эриан (Tracy Tzu), Леонард Термо (Angelo Rizzo), Рэймонд Дж. Бэрри (Louis Bukowski), Кэролайн Кэва (Connie White), Эдди Джонс (William McKenna), Джои Чин (Ronnie Chang), Виктор Вонг (Harry Yung), К. Док Ип (Milton Bin), Хон Лам Пау (Fred Hung), Вэй Донг Ву (Elder)


Описание: В глубоком лабиринте Нью - Йорка скрывается Китайский квартал - рассадник Триады, тысячелетней криминальной угрозы миру. Джой Тай, ее новый крестный отец, ожесточает раздел территорий азиатской и итальянской наркомафий. Улицы обагряются кровью его врагов. Но в дела Китайского квартала напролом вторгается капитан полиции Стэнли Уайт, ветеран вьетнамской войны. Он бессердечен и бесстрастен. Он - сжатый кулак. Он объявляет преступному беспределу бескомпромиссную войну...



MPAA: R - Лицам до 17 лет обязательно присутствие взрослого


Семпл


Качество: BDRip
Контейнер: MKV

Видео: AVC, 1280x544 (2.35:1), 9655 kbps, 23,976 fps, 0,578 bpp
Аудио №1: русский / AC3 / 2.0 / 48 kHz / 192 kbps / MVO ( R5 / Neoclassica )
Аудио №2: русский / AC3 / 2.0 / 48 kHz / 192 kbps / DVO ( НТВ+ )
Аудио №3: русский / AC3 / 2.0 / 48 kHz / 192 kbps / DVO ( РЕН-ТВ )
Аудио №4: русский / AC3 / 5.1 / 48 kHz / 320 kbps / AVO ( Немахов )
Аудио №5: русский / AC3 / 2.0 / 48 kHz / 192 kbps / AVO ( Гаврилов )
Аудио №6: русский / AC3 / 2.0 / 48 kHz / 192 kbps / AVO ( Володарский )
Аудио №7: русский / AC3 / 2.0 / 48 kHz / 192 kbps / AVO ( Михалёв )
Аудио №8: английский / AC3 / 5.1 / 48 kHz / 640 kbps
Навигация по главам: есть


******************************************************************************
x264 [info]: frame I:1358 Avg QP:16.64 size:113530
x264 [info]: frame P:34485 Avg QP:17.74 size: 76886
x264 [info]: frame B:157546 Avg QP:19.66 size: 45221
******************************************************************************
Format : Matroska
Format version : Version 2
File size : 11.3 GiB
Duration : 2h 14mn
Overall bit rate : 12.0 Mbps
Movie name : = Год Дракона / Year of the Dragon (1985) BDRip 720p by SC Kosmos =
Encoded date : UTC 2016-06-12 15:17:25
Writing application : mkvmerge v5.8.0 ('No Sleep / Pillow') built on Sep 2 2012 15:37:04
Writing library : libebml v1.2.3 + libmatroska v1.3.0
Attachment : Yes

Video
ID : 1
Format : AVC
Format/Info : Advanced Video Codec
Format profile : High@L4.1
Format settings, CABAC : Yes
Format settings, ReFrames : 12 frames
Codec ID : V_MPEG4/ISO/AVC
Duration : 2h 14mn
Bit rate : 9 655 Kbps
Width : 1 280 pixels
Height : 544 pixels
Display aspect ratio : 2.35:1
Frame rate : 23.976 fps
Color space : YUV
Chroma subsampling : 4:2:0
Bit depth : 8 bits
Scan type : Progressive
Bits/(Pixel*Frame) : 0.578
Stream size : 9.07 GiB (80%)
Title : Год Дракона / Year of the Dragon (1985) BDRip 720p by SC Kosmos
Writing library : x264 core 146 r2538 121396c
Encoding settings : cabac=1 / ref=12 / deblock=1:-2:-2 / analyse=0x3:0x113 / me=umh / subme=11 / psy=1 / psy_rd=1.00:0.00 / mixed_ref=1 / me_range=32 / chroma_me=1 / trellis=2 / 8x8dct=1 / cqm=0 / deadzone=21,11 / fast_pskip=0 / chroma_qp_offset=-2 / threads=12 / lookahead_threads=3 / sliced_threads=0 / nr=0 / decimate=1 / interlaced=0 / bluray_compat=0 / constrained_intra=0 / bframes=10 / b_pyramid=2 / b_adapt=2 / b_bias=0 / direct=3 / weightb=1 / open_gop=0 / weightp=2 / keyint=240 / keyint_min=23 / scenecut=40 / intra_refresh=0 / rc_lookahead=50 / rc=crf / mbtree=0 / crf=17.0 / qcomp=0.60 / qpmin=0 / qpmax=69 / qpstep=4 / vbv_maxrate=50000 / vbv_bufsize=62500 / crf_max=0.0 / nal_hrd=none / filler=0 / ip_ratio=1.40 / pb_ratio=1.30 / aq=1:1.00
Language : English
Default : Yes
Forced : No

Audio #1
ID : 2
Format : AC-3
Format/Info : Audio Coding 3
Mode extension : CM (complete main)
Codec ID : A_AC3
Duration : 2h 14mn
Bit rate mode : Constant
Bit rate : 192 Kbps
Channel(s) : 2 channels
Channel positions : Front: L R
Sampling rate : 48.0 KHz
Bit depth : 16 bits
Compression mode : Lossy
Stream size : 185 MiB (2%)
Title : MVO ( R5 / Neoclassica )
Language : Russian
Default : Yes
Forced : No

Audio #2
ID : 3
Format : AC-3
Format/Info : Audio Coding 3
Mode extension : CM (complete main)
Codec ID : A_AC3
Duration : 2h 14mn
Bit rate mode : Constant
Bit rate : 192 Kbps
Channel(s) : 2 channels
Channel positions : Front: L R
Sampling rate : 48.0 KHz
Bit depth : 16 bits
Compression mode : Lossy
Stream size : 185 MiB (2%)
Title : DVO ( НТВ+ )
Language : Russian
Default : No
Forced : No

Audio #3
ID : 4
Format : AC-3
Format/Info : Audio Coding 3
Mode extension : CM (complete main)
Codec ID : A_AC3
Duration : 2h 14mn
Bit rate mode : Constant
Bit rate : 192 Kbps
Channel(s) : 2 channels
Channel positions : Front: L R
Sampling rate : 48.0 KHz
Bit depth : 16 bits
Compression mode : Lossy
Stream size : 185 MiB (2%)
Title : DVO ( РЕН-ТВ )
Language : Russian
Default : No
Forced : No

Audio #4
ID : 5
Format : AC-3
Format/Info : Audio Coding 3
Mode extension : CM (complete main)
Codec ID : A_AC3
Duration : 2h 14mn
Bit rate mode : Constant
Bit rate : 320 Kbps
Channel(s) : 6 channels
Channel positions : Front: L C R, Side: L R, LFE
Sampling rate : 48.0 KHz
Bit depth : 16 bits
Compression mode : Lossy
Stream size : 308 MiB (3%)
Title : AVO ( Немахов )
Language : Russian
Default : No
Forced : No

Audio #5
ID : 6
Format : AC-3
Format/Info : Audio Coding 3
Mode extension : CM (complete main)
Codec ID : A_AC3
Duration : 2h 14mn
Bit rate mode : Constant
Bit rate : 192 Kbps
Channel(s) : 2 channels
Channel positions : Front: L R
Sampling rate : 48.0 KHz
Bit depth : 16 bits
Compression mode : Lossy
Stream size : 185 MiB (2%)
Title : AVO ( Гаврилов )
Language : Russian
Default : No
Forced : No

Audio #6
ID : 7
Format : AC-3
Format/Info : Audio Coding 3
Mode extension : CM (complete main)
Codec ID : A_AC3
Duration : 2h 14mn
Bit rate mode : Constant
Bit rate : 192 Kbps
Channel(s) : 2 channels
Channel positions : Front: L R
Sampling rate : 48.0 KHz
Bit depth : 16 bits
Compression mode : Lossy
Stream size : 185 MiB (2%)
Title : AVO ( Володарский )
Language : Russian
Default : No
Forced : No

Audio #7
ID : 8
Format : AC-3
Format/Info : Audio Coding 3
Mode extension : CM (complete main)
Codec ID : A_AC3
Duration : 2h 14mn
Bit rate mode : Constant
Bit rate : 192 Kbps
Channel(s) : 2 channels
Channel positions : Front: L R
Sampling rate : 48.0 KHz
Bit depth : 16 bits
Compression mode : Lossy
Stream size : 185 MiB (2%)
Title : AVO ( Михалёв )
Language : Russian
Default : No
Forced : No

Audio #8
ID : 9
Format : AC-3
Format/Info : Audio Coding 3
Mode extension : CM (complete main)
Codec ID : A_AC3
Duration : 2h 14mn
Bit rate mode : Constant
Bit rate : 640 Kbps
Channel(s) : 6 channels
Channel positions : Front: L C R, Side: L R, LFE
Sampling rate : 48.0 KHz
Bit depth : 16 bits
Compression mode : Lossy
Stream size : 615 MiB (5%)
Language : English
Default : No
Forced : No

Text #1
ID : 10
Format : PGS
Muxing mode : zlib
Codec ID : S_HDMV/PGS
Codec ID/Info : The same subtitle format used on BDs/HD-DVDs
Language : Russian
Default : No
Forced : No

Text #2
ID : 11
Format : PGS
Muxing mode : zlib
Codec ID : S_HDMV/PGS
Codec ID/Info : The same subtitle format used on BDs/HD-DVDs
Language : English
Default : No
Forced : No

Menu
00:00:00.000 : en:00:00:00.000
00:02:07.127 : en:00:02:07.127
00:10:49.023 : en:00:10:49.023
00:19:53.359 : en:00:19:53.359
00:24:33.472 : en:00:24:33.472
00:33:17.954 : en:00:33:17.954
00:37:05.056 : en:00:37:05.056
00:47:18.419 : en:00:47:18.419
00:54:33.520 : en:00:54:33.520
01:00:16.738 : en:01:00:16.738
01:15:03.332 : en:01:15:03.332
01:20:17.980 : en:01:20:17.980
01:22:31.363 : en:01:22:31.363
01:27:47.888 : en:01:27:47.888
01:35:30.433 : en:01:35:30.433
01:41:39.510 : en:01:41:39.510
01:47:19.058 : en:01:47:19.058
01:55:18.328 : en:01:55:18.328
02:03:19.767 : en:02:03:19.767
02:10:28.362 : en:02:10:28.362






Не забывайте говорить Спасибо. Не уходите с раздачи!   
Торрент: Зарегистрирован [10 фев 2019, 16:30] Для скачивания .torrent
необходима регистрация
Или скачать с помощью
MediaGet
Статус:
Проверен
 
.torrent скачан: 27 раз
Хэш: a56569ed7b7df8b8b4796c12351d25a651e3c843
Размер: 11.27 ГБ (12 105 092 289 байт)
   Стать Автором раздачи
   
Цитата
  • Похожие торренты
    Ответы
    Просмотры
    Последнее сообщение

Вернуться в Зарубежное кино (HD Video)

Кто сейчас на конференции

Сейчас эту тему просматривают: нет зарегистрированных пользователей и гости: 1