Ленинград (2007) WEBRip (серии 1-4 из 4)

 Статистика раздачи 
Размер: 2.18 ГБ   |  Зарегистрирован: 03 фев 2019, 17:05   |   .torrent скачан: 0 раз
Сидеров: 4  [ 0 байт/сек ]     Личеров: 0  [ 0 байт/сек ]  
  
Аватара пользователя
*
*
 
Раздал: 141.85 ГБ
Скачал: 6.16 ГБ
Ратио: 23.021
Сообщения: 260710
Стаж: 7 лет 6 месяцев 25 дней
СообщениеДобавлено: 03 фев 2019, 17:05


Ленинград (2007) WEBRip (серии 1-4 из 4)

Производство: Россия / Первый канал
Жанр: драма, военный

Режиссер: Александр Буравский
Актеры: Мира Сорвино, Ольга Сутулова, Луиза Мосендз, Кирилл Лавров, Александр Абдулов, Владимир Ильин, Юлия Рутберг, Михаил Ефремов, Евгений Стычкин, Валентин Гафт, Валентина Талызина и др.

Описание:
Фильм посвящен одной из самых трагических страниц второй мировой войны — 900-дневной блокаде Ленинграда, которая продолжалась с 8 сентября 1941 года по 27 января 1944 года. Время действия — ноябрь 1941 года. Памятники и величественные купола соборов осажденного немцами Ленинграда затянуты камуфляжной сеткой, разрушены здания, брошены трамваи. Снабжение города продовольствием практически прервано. Единственная связь с Большой землей — дорога через Ладожское озеро, от которой зависят жизни 2 млн 887 тыс. человек…


Возраст: 16+ (зрителям, достигшим 16 лет)

Продолжительность: ~00:52:00 серия
Качество видео: WEBRip

Видео: Xvid, 720x400 (16:9), ~1295 Kbps
Аудио: AC3, 2 ch, 192 Kbps
Код: Выделить всё
Общее
Полное имя                               : G:\Ленинград (2007)\Серия 1.avi
Формат                                   : AVI
Формат/Информация                        : Audio Video Interleave
Размер файла                             : 557 Мбайт
Продолжительность                        : 52 м. 11 с.
Общий поток                              : 1494 Кбит/сек
Программа кодирования                    : VirtualDubMod 1.5.10.3 | [url=http://www.virtualdub-fr.org]www.virtualdub-fr.org[/url] || (build 2550/release)
Библиотека кодирования                   : VirtualDubMod build 2550/release

Видео
Идентификатор                            : 0
Формат                                   : MPEG-4 Visual
Профиль формата                          : Advanced Simple@L5
Настройки формата                        : BVOP1 / Custom Matrix
Параметр BVOP формата                    : 1
Параметр QPel формата                    : Нет
Параметр GMC формата                     : Без точки перехода
Параметр матрицы формата                 : Выборочная
Идентификатор кодека                     : XVID
Идентификатор кодека/Подсказка           : XviD
Продолжительность                        : 52 м. 11 с.
Битрейт                                  : 1292 Кбит/сек
Ширина                                   : 720 пикселей
Высота                                   : 400 пикселей
Соотношение сторон                       : 16:9
Частота кадров                           : 25,000 кадров/сек
Цветовое пространство                    : YUV
Субдискретизация насыщенности            : 4:2:0
Битовая глубина                          : 8 бит
Тип развёртки                            : Прогрессивная
Метод сжатия                             : С потерями
Бит/(Пиксели*Кадры)                      : 0.179
Размер потока                            : 482 Мбайт (86%)
Библиотека кодирования                   : XviD 73

Аудио
Идентификатор                            : 1
Формат                                   : AC-3
Формат/Информация                        : Audio Coding 3
Коммерческое название                    : Dolby Digital
Идентификатор кодека                     : 2000
Продолжительность                        : 52 м. 11 с.
Вид битрейта                             : Постоянный
Битрейт                                  : 192 Кбит/сек
Каналы                                   : 2 канала
Channel layout                           : L R
Частота                                  : 48,0 КГц
Частота кадров                           : 31,250 кадров/сек (1536 SPF)
Битовая глубина                          : 16 бит
Метод сжатия                             : С потерями
Размер потока                            : 71,7 Мбайт (13%)
Выравнивание                             : Разделение по промежуткам
Продолжительность промежутка             : 40  мс. (1,00 видеокадр)
Время предзагрузки промежутка            : 500  мс.
ServiceKind/String                       : Complete Main

Скриншоты:




Время раздачи: 24/7 (круглосуточно) (до появления первых 3-5 скачавших)
Не забывайте говорить Спасибо. Не уходите с раздачи!   
Торрент: Зарегистрирован [03 фев 2019, 17:05]
Статус:
Проверен
 
.torrent скачан: 0 раз
Хэш: 05aa1836aa7757bc3696ea2e6d963819b363389f
Размер: 2.18 ГБ (2 337 851 392 байт)
   Стать Автором раздачи
   
Цитата
  • Похожие торренты
    Ответы
    Просмотры
    Последнее сообщение

Вернуться в Отечественные сериалы

Кто сейчас на конференции

Сейчас эту тему просматривают: нет зарегистрированных пользователей и гости: 1