В объезд / Та еще поездка / The Detour / Сезон: 3 / Серии: 1-10 из 10 (Бреннан Шрофф, Джефф Томсич, Дэйл Штерн) [2018, США, Комедия, WEBRip] DVO (Gears Media) + Original

 Статистика раздачи 
Размер: 2.61 ГБ   |  Зарегистрирован: 27 янв 2018, 14:19   |   .torrent скачан: 0 раз
Сидеров: 4  [ 0 байт/сек ]     Личеров: 0  [ 0 байт/сек ]  
  
Аватара пользователя
*
*
 
Раздал: 141.85 ГБ
Скачал: 6.16 ГБ
Ратио: 23.021
Сообщения: 251637
Стаж: 7 лет 1 месяц 12 дней

В объезд / Та еще поездка / The Detour
Год выпуска: 2018
Страна: США
Жанр: Комедия
Продолжительность: ~00:25:00
Перевод: Профессиональный (двухголосый закадровый) Gears Media
Режиссёр: Бреннан Шрофф, Джефф Томсич, Дэйл Штерн
В ролях: Джейсон Джонс, Натали Зи, Эшли Герасимович, Лайам Кэрролл, Даниэлла Пинеда, Мэри Грилл, Фил Ривз, Джефф Парис, Лаура Бенанти, Мамуду Ати и другие
Описание: История небольшой семьи с двумя детьми, которая решила отправиться в долгое путешествие от родного дома прямиком до Флориды. Путь непростой, но герои всегда оптимистичны — они верят в себя, а их путь благоволит им. Кажется, что впереди их ждет долгая дорога, полная интересных открытий. Однако поездка оказывается не такой удачной! Вскоре положительный настрой сменяется упадническими чувствами, ведь героев начинают преследовать неудачи… одна за другой. И отбоя от них нет!
Ссылка на предыдущие и альтернативные раздачи: http://rutracker.org/forum/tracker.php?g=foreign_serials&nm=The+Detour
Сэмпл: http://multi-up.com/1184781
Качество: WEBRip
Формат: AVI
Видео: XviD, 720x400 at 29.970 fps, ~1500 kbps avg
Аудио1: Russian, MP3, 48 kHz, 2 ch, 128 kbps
Аудио2: English, MP3, 48 kHz, 2 ch, 128 kbps
Субтитры: нет
Реклама: аудио (два раза, в начале и конце, по 12 сек.)
Format : AVI
Format/Info : Audio Video Interleave
File size : 278 MiB
Duration : 21 min 51 s
Overall bit rate : 1 779 kb/s
Writing application : Lavf56.30.100
Video
ID : 0
Format : xvid
Codec ID : xvid
Duration : 21 min 51 s
Bit rate : 1 501 kb/s
Width : 720 pixels
Height : 400 pixels
Display aspect ratio : 16:9
Frame rate : 29.970 (30000/1001) FPS
Scan type : Progressive
Bits/(Pixel*Frame) : 0.174
Stream size : 235 MiB (84%)
Audio #1
ID : 1
Format : MPEG Audio
Format version : Version 1
Format profile : Layer 3
Mode : Joint stereo
Mode extension : MS Stereo
Codec ID : 55
Codec ID/Hint : MP3
Duration : 21 min 51 s
Bit rate mode : Constant
Bit rate : 128 kb/s
Channel(s) : 2 channels
Sampling rate : 48.0 kHz
Compression mode : Lossy
Stream size : 20.0 MiB (7%)
Alignment : Aligned on interleaves
Interleave, duration : 24 ms (0.72 video frame)
Interleave, preload duratio : 24 ms
Title : Gears Media
Audio #2
ID : 2
Format : MPEG Audio
Format version : Version 1
Format profile : Layer 3
Mode : Joint stereo
Mode extension : MS Stereo
Codec ID : 55
Codec ID/Hint : MP3
Duration : 21 min 51 s
Bit rate mode : Constant
Bit rate : 128 kb/s
Channel(s) : 2 channels
Sampling rate : 48.0 kHz
Compression mode : Lossy
Stream size : 20.0 MiB (7%)
Alignment : Aligned on interleaves
Interleave, duration : 24 ms (0.72 video frame)
Внимание! Раздача ведётся путём добавления новых серий; при каждом добавлении создаётся новый торрент. Чтобы начать докачку новой серии, пользователям необходимо сделать следующее:
(1) остановить скачивание,
(2) удалить старый торрент у себя из клиента (старые серии удалять не надо),
(3) скачать новый торрент и запустить его у себя в клиенте вместо старого, при этом указать клиенту путь в старую папку куда и должно происходить скачивание новых серий.
Ваш клиент при этом должен произвести хеширование (проверку) старой папки (если не производит сам - помогите ему сделать это), и будет докачивать только те серии которых у вас ещё нет. Старые серии при этом не удаляются, а продолжают раздаваться!
Eсли вы уже удалили старые серии, то предотвратить повторную закачку старых серий можно, отжав галочку в соответствующих местах при запуске нового торрента. По возможности, желательно не удалять старые серии как можно дольше чтобы релизёр не столько продолжал раздавать старые серии, а смог сконцентрироваться на новых.
Не забывайте говорить Спасибо. Не уходите с раздачи!   
Торрент: Зарегистрирован [27 янв 2018, 14:19]
Статус:
Проверен
 
.torrent скачан: 0 раз
Хэш: 6c08ac1dfc3ee4a41615d8a8f43edc8df7687f1d
Размер: 2.61 ГБ (2 805 614 994 байт)
   Стать Автором раздачи
   
Цитата
  • Похожие торренты
    Ответы
    Просмотры
    Последнее сообщение

Вернуться в В объезд / The Detour

Кто сейчас на конференции

Сейчас эту тему просматривают: нет зарегистрированных пользователей и гости: 1