Willie Nelson & Merle Haggard - Django And Jimmie [24 bit 88,2 khz] [2015, Folk, World, & Country, Country, FLAC]

 Статистика раздачи 
Размер: 842.19 МБ   |  Зарегистрирован: 08 янв 2017, 21:55   |   .torrent скачан: 0 раз
Сидеров: 0  [ 0 байт/сек ]     Личеров: 0  [ 0 байт/сек ]  
  
Аватара пользователя
*
*
 
Раздал: 141.85 ГБ
Скачал: 6.16 ГБ
Ратио: 23.021
Сообщения: 266389
Стаж: 7 лет 11 месяцев 3 дня

Willie Nelson & Merle Haggard - Django And Jimmie [24 bit 88,2 khz]

Формат: FLAC, tracks, lossless
Год выпуска: 2015
Страна: USA
Жанр: Folk, World, & Country, Country
Продолжительность: 00:47:02
Описание:
01. Django And Jimmie
02. It's All Going To Pot
03. Unfair Weather Friend
04. Missing Ol' Johnny Cash (Ft. Bobby Bare)
05. Live This Song
06. Alice In
07. Don't Think Twice, It's Alright
08. Family Bible
09. It's Only Money
10. Swinging Doors
11. Where Dreams Come To Die
12. Somewhere Between
13. Driving The Herd
14. The Only Man Wilder Than Me

Доп. информация:
Bobby Bare - vocals on "Missing Ol' Johnny Cash"
Eddie Bayers - drums
Eli Beaird - bass guitar
Larry Beaird - acoustic guitar
Wyatt Beard - background vocals
Jim "Moose" Brown - piano
Shawn Camp - acoustic guitar
Melonie Cannon - background vocals
Renato Caranto - saxophone
Tony Creasman - drums
Dan Dugmore - steel guitar
Kevin "Swine" Grantt - bass guitar, upright bass
Ben Haggard - electric guitar
Merle Haggard - lead vocals
Tony Harrell - keyboards
Jamey Johnson - vocals on "It's All Going to Pot"
Mike Johnson - acoustic slide guitar, dobro, steel guitar
Alison Krauss - background vocals
Liana Manis - background vocals
Catherine Styron Marx - Hammond B-3 organ, piano
Willie Nelson - acoustic guitar, lead vocals
Mickey Raphael - harmonica
Bobby Terry - acoustic guitar, electric guitar
Lonnie Wilson - drums

foobar2000 1.1.10 / Dynamic Range Meter 1.1.1
log date: 2017-01-08 21:21:31

--------------------------------------------------------------------------------
Analyzed: Willie Nelson, Merle Haggard with Bobby Bare / Django and Jimmie (1)
Willie Nelson, Merle Haggard with Jamey Johnson / Django and Jimmie (2)
Willie Nelson, Merle Haggard / Django and Jimmie (3-14)
--------------------------------------------------------------------------------

DR Peak RMS Duration Track
--------------------------------------------------------------------------------
DR12 -0.20 dB -13.48 dB 3:28 ?-Missing Ol' Johnny Cash
DR10 -0.30 dB -11.42 dB 2:59 ?-It's All Going to Pot
DR12 -0.20 dB -14.48 dB 2:53 ?-Django and Jimmie
DR12 -1.10 dB -15.52 dB 4:15 ?-Unfair Weather Friend
DR13 -0.20 dB -14.94 dB 3:37 ?-Live This Long
DR11 -0.90 dB -13.98 dB 3:03 ?-Alice In Hulaland
DR11 -0.90 dB -12.92 dB 4:12 ?-Don't Think Twice, It's Alright
DR10 -0.20 dB -12.69 dB 3:38 ?-Family Bible
DR10 -0.20 dB -11.62 dB 3:57 ?-It's Only Money
DR12 -0.20 dB -13.43 dB 2:52 ?-Swinging Doors
DR11 -0.90 dB -14.75 dB 3:20 ?-Where Dreams Come to Die
DR13 -0.20 dB -14.83 dB 3:25 ?-Somewhere Between
DR12 -0.20 dB -13.32 dB 2:51 ?-Driving the Herd
DR11 -0.20 dB -13.34 dB 2:33 ?-The Only Man Wilder Than Me
--------------------------------------------------------------------------------

Number of tracks: 14
Official DR value: DR11

Samplerate: 88200 Hz
Channels: 2
Bits per sample: 24
Bitrate: 2415 kbps
Codec: FLAC
================================================================================
Не забывайте говорить Спасибо. Не уходите с раздачи!   
Торрент: Зарегистрирован [08 янв 2017, 21:55]
Статус:
Проверен
 
.torrent скачан: 0 раз
Хэш: d6cc612aaadac3e91aa255b52b3226330e685fb7
Размер: 842.19 МБ (883 101 256 байт)
   Стать Автором раздачи
   
Цитата

Вернуться в Vinyl-Rip и Hand-Made

Кто сейчас на конференции

Сейчас эту тему просматривают: нет зарегистрированных пользователей и гости: 1