Виновный / The Guilty / Den skyldige (2018) BDRip-AVC от OlLanDGroup | D, P | iTunes

 Статистика раздачи 
Размер: 1.79 ГБ   |  Зарегистрирован: 11 янв 2019, 07:03   |   .torrent скачан: 1410 раз
Сидеров: 205  [ 0 байт/сек ]     Личеров: 21  [ 0 байт/сек ]  
  
Аватара пользователя
 
Раздал: 5.61 ТБ
Скачал: 189.49 ГБ
Ратио: 30.322
Сообщения: 231152
Стаж: 2 года 3 месяца 2 дня

Виновный / The Guilty / Den skyldige
«Le polar danois qui emballe la presse et le public»



Год выпуска: 2018
Страна: Дания
Производство: Det Danske Filminstitut, New Danish Screen, Nordisk Film Production
Жанр: Триллер, драма, криминал


Режиссёр: Густав Мёллер
В ролях: Якоб Седергрен, Jessica Dinnage, Омар Шаргави, Johan Olsen, Якоб Ульрик Ломанн, Katinka Evers-Jahnsen, Jeanette Lindbæk, Simon Bennebjerg, Лаура Бро, Мортен Суурбалле


Перевод: Дублированный | [iTunes], Профессиональный (многоголосый закадровый) | [HDrezka Studio]
Субтитры: Английские
Реклама: Отсутствует

Описание: Диспетчер службы спасения, бывший полицейский Асгер Хольм, принимает звонок от похищенной женщины. Когда связь обрывается, приходит время начать поиски жертвы и похитителя, и каждая прошедшая минута уменьшает шансы на благополучный исход. Однако, вскоре Асгер понимает, что это совсем не обычное похищение…




Качество: BDRip-AVC | BDRemux | Den skyldige 2018 1080p Blu-ray Remux AVC DTS-HD MA 5.1 - KRaLiMaRKo
Продолжительность: 01:25:11

Формат: MKV
Видео кодек: MPEG-4 AVC
Аудио кодек: AC3
Видео: 1024x428 (2.40:1), 25,000 fps, x264 ~1 987 kbps avg, 0.181 bit/pixel
Аудио #1: 48 kHz, AC3 Dolby Digital, 3/2 (L,C,R,l,r) + LFE ch, ~384.00 kbps avg | RUS (iTunes)
Аудио #2: 48 kHz, AC3 Dolby Digital, 2 (L,R) ch, ~192.00 kbps avg | RUS (HDrezka Studio)
Аудио #3: 48 kHz, AC3 Dolby Digital, 3/2 (L,C,R,l,r) + LFE ch, ~448.00 kbps avg | DEN


Дата премьеры (мир): 16 февраля 2018


Релиз от:

Общее
Уникальный идентификатор : 29729786586425682196701390490261946650 (0x165DBFA5BCCE61A633D8290C64B6811A)
Полное имя : F:OlLanDGroupDen.Skyldige.2018.BDRip(AVC).OlLanDGroup.mkv
Формат : Matroska
Версия формата : Version 4 / Version 2
Размер файла : 1,79 Гбайт
Продолжительность : 1 ч. 25 м.
Общий поток : 3008 Кбит/сек
Название фильма : Den skyldige 2018 #TorpedoUK#
Дата кодирования : UTC 2019-01-11 03:56:52
Программа кодирования : mkvmerge v29.0.0 ('Like It Or Not') 64-bit
Библиотека кодирования : libebml v1.3.6 + libmatroska v1.4.9

Видео
Идентификатор : 1
Формат : AVC
Формат/Информация : Advanced Video Codec
Профиль формата : High@L4.1
Параметр CABAC формата : Да
Параметр ReFrames формата : 10 кадров
Идентификатор кодека : V_MPEG4/ISO/AVC
Продолжительность : 1 ч. 25 м.
Битрейт : 1987 Кбит/сек
Ширина : 1024 пикселя
Высота : 428 пикселей
Соотношение сторон : 2,40:1
Режим частоты кадров : Постоянный
Частота кадров : 25,000 кадров/сек
Цветовое пространство : YUV
Субдискретизация насыщенности : 4:2:0
Битовая глубина : 8 бит
Тип развёртки : Прогрессивная
Бит/(Пиксели*Кадры) : 0.181
Размер потока : 1,18 Гбайт (66%)
Библиотека кодирования : x264 core 146 r2538 121396c
Настройки программы : cabac=1 / ref=10 / deblock=1:-3:-3 / analyse=0x3:0x113 / me=umh / subme=11 / psy=1 / psy_rd=0.97:0.05 / mixed_ref=1 / me_range=48 / chroma_me=1 / trellis=2 / 8x8dct=1 / cqm=0 / deadzone=21,11 / fast_pskip=1 / chroma_qp_offset=-3 / threads=6 / lookahead_threads=1 / sliced_threads=0 / nr=0 / decimate=1 / interlaced=0 / bluray_compat=0 / constrained_intra=0 / bframes=11 / b_pyramid=2 / b_adapt=2 / b_bias=0 / direct=3 / weightb=1 / open_gop=0 / weightp=2 / keyint=250 / keyint_min=25 / scenecut=40 / intra_refresh=0 / rc_lookahead=40 / rc=2pass / mbtree=0 / bitrate=1987 / ratetol=1.0 / qcomp=0.60 / qpmin=0 / qpmax=69 / qpstep=4 / cplxblur=20.0 / qblur=0.5 / vbv_maxrate=50000 / vbv_bufsize=62500 / nal_hrd=none / filler=0 / ip_ratio=1.40 / pb_ratio=1.30 / aq=1:1.00
Язык : English
Default : Да
Forced : Нет

Аудио #1
Идентификатор : 2
Формат : AC-3
Формат/Информация : Audio Coding 3
Расширение режима : CM (complete main)
Параметр Endianness формата : Big
Идентификатор кодека : A_AC3
Продолжительность : 1 ч. 24 м.
Вид битрейта : Постоянный
Битрейт : 384 Кбит/сек
Каналы : 6 каналов
Расположение каналов : Front: L C R, Side: L R, LFE
Частота : 48,0 КГц
Частота кадров : 31,250 кадров/сек (1536 spf)
Битовая глубина : 16 бит
Метод сжатия : С потерями
Размер потока : 233 Мбайт (13%)
Заголовок : DUB [iTunes]
Язык : Russian
Default : Да
Forced : Нет

Аудио #2
Идентификатор : 3
Формат : AC-3
Формат/Информация : Audio Coding 3
Расширение режима : CM (complete main)
Параметр Endianness формата : Big
Идентификатор кодека : A_AC3
Продолжительность : 1 ч. 24 м.
Вид битрейта : Постоянный
Битрейт : 192 Кбит/сек
Каналы : 2 канала
Расположение каналов : Front: L R
Частота : 48,0 КГц
Частота кадров : 31,250 кадров/сек (1536 spf)
Битовая глубина : 16 бит
Метод сжатия : С потерями
Размер потока : 117 Мбайт (6%)
Заголовок : MVO [HDRezka Studio]
Язык : Russian
Default : Нет
Forced : Нет

Аудио #3
Идентификатор : 4
Формат : AC-3
Формат/Информация : Audio Coding 3
Расширение режима : CM (complete main)
Параметр Endianness формата : Big
Идентификатор кодека : A_AC3
Продолжительность : 1 ч. 25 м.
Вид битрейта : Постоянный
Битрейт : 448 Кбит/сек
Каналы : 6 каналов
Расположение каналов : Front: L C R, Side: L R, LFE
Частота : 48,0 КГц
Частота кадров : 31,250 кадров/сек (1536 spf)
Битовая глубина : 16 бит
Метод сжатия : С потерями
Размер потока : 273 Мбайт (15%)
Заголовок : [Original]
Язык : Danish
Default : Нет
Forced : Нет

Текст
Идентификатор : 5
Формат : UTF-8
Идентификатор кодека : S_TEXT/UTF8
Идентификатор кодека/Информация : UTF-8 Plain Text
Продолжительность : 1 ч. 23 м.
Битрейт : 50 бит/сек
Count of elements : 1040
Размер потока : 31,1 Кбайт (0%)
Заголовок : Full
Язык : English
Default : Нет
Forced : Нет

Меню
00:00:00.000 : :Chapter 01
00:08:45.680 : :Chapter 02
00:15:07.480 : :Chapter 03
00:25:05.240 : :Chapter 04
00:32:11.520 : :Chapter 05
00:40:12.080 : :Chapter 06
00:45:19.160 : :Chapter 07
00:52:43.200 : :Chapter 08
01:01:19.720 : :Chapter 09
01:07:38.080 : :Chapter 10
01:12:36.320 : :Chapter 11
01:22:06.240 : :Chapter 12



Не забывайте говорить Спасибо. Не уходите с раздачи!   
Торрент: Зарегистрирован [11 янв 2019, 07:03]
Статус:
Проверен
 
.torrent скачан: 1410 раз
Хэш: 83ba48378f3ec15e48c3174090a97e5228484907
Размер: 1.79 ГБ (1 921 660 265 байт)
   Стать Автором раздачи
   
Цитата
  • Похожие торренты
    Ответы
    Просмотры
    Последнее сообщение

Вернуться в Зарубежное кино (HDRip, DVDRip)

Кто сейчас на конференции

Сейчас эту тему просматривают: нет зарегистрированных пользователей и гости: 1