Агент Джонни Инглиш 3.0 / Johnny English Strikes Again (2018) HDRip-AVC | Лицензия

 Статистика раздачи 
Размер: 742.07 МБ   |  Зарегистрирован: 11 янв 2019, 09:10   |   .torrent скачан: 18708 раз
Сидеров: 979  [ 0 байт/сек ]     Личеров: 214  [ 0 байт/сек ]  
  
Аватара пользователя
 
Раздал: 5.61 ТБ
Скачал: 189.49 ГБ
Ратио: 30.322
Сообщения: 231152
Стаж: 2 года 3 месяца 2 дня




Информация о фильме
Название: Агент Джонни Инглиш 3.0
Оригинальное название: Johnny English Strikes Again
Год выпуска: 2018
Жанр: боевик, комедия, приключения
Режиссер: Дэвид Керр

В ролях: Эмма Томпсон, Ольга Куриленко, Роуэн Эткинсон, Джейк Лэси, Бен Миллер, Миранда Хеннесси, Адам Джеймс, Пиппа Беннетт-Уорнер, Ирена Тишина, Джеймс Илс

О фильме:
Когда все агенты секретной службы Её Величества внезапно выходят из строя, в игру вступает запасной вариант. Образец английского стиля и любимец роковых красоток; король безвыходных ситуаций и хранитель аналоговых традиций в цифровом мире, агент Джонни Инглиш - боль и гордость британской разведки. Этому парню есть что взбалтывать, и он взболтает не по-детски.



Страна: Великобритания, Франция, США
Студия: Universal Pictures, Studio Canal, Working Title Films
Продолжительность: 01:28:20
Перевод: Профессиональный (полное дублирование) [Лицензия]

Файл
Формат: MKV
Качество: HDRip-AVC
Видео: x264, 750x314, 23.976 fps, ~1095 kbps
Аудио: AAC, 2 ch, ~80 kbps - Rus
Субтитры: Русские (форс, полные), английские

***Релиз от: -=DoMiNo=-



x264 info: frame I:1484 Avg QP:13.84 size: 42949
x264 info: frame P:33397 Avg QP:16.84 size: 10777
x264 info: frame B:92211 Avg QP:18.64 size: 3261
x264 info: consecutive B-frames: 3.0% 7.1% 7.7% 54.1% 9.6% 13.8% 1.4% 2.1% 0.7% 0.2% 0.4%

General
Unique ID : 203473531745470639498078642570618522252 (0x991393A70F5A537294D6D0F425D8CA8C)
Complete name : Агент Джонни Инглиш 3.0_(2018)_HDRip-AVC_DUB_[-=DoMiNo=-].mkv
Format : Matroska
Format version : Version 4
File size : 742 MiB
Duration : 1 h 28 min
Overall bit rate : 1 172 kb/s
Movie name : Агент Джонни Инглиш 3.0
Deion : Когда все агенты секретной службы Её Величества внезапно выходят из строя, в игру вступает запасной вариант. Образец английского стиля и любимец роковых красоток; король безвыходных ситуаций и хранитель аналоговых традиций в цифровом мире, агент Джонни Инглиш – боль и гордость британской разведки. Этому парню есть что взбалтывать, и он взболтает не по-детски.
Encoded date : UTC 2019-01-11 06:07:54
Writing application : mkvmerge v30.1.0 ('Forever And More') 64-bit
Writing library : libebml v1.3.6 + libmatroska v1.4.9
Attachments : poster.jpg
ACTORS : Rowan Atkinson, Ben Miller, Olga Kurylenko, Jake Lacy, Emma Thompson, Adam James, Amit Shah, Matthew Beard, Michael Gambon, Charles Dance, Edward Fox, Kevin Eldon, Pauline McLynn, Jonny Sweet, Samantha Russell, David Mumeni, Miranda Hennessy, Vicki Pepperdine, Marvin Beyster, Neil Edmond, Gus Brown, Peter Vo
COUNTRY : France, United States, United Kingdom
DATE : 2018-09-13
DIRECTOR : David Kerr
GENRE : приключения, семейный, боевик, комедия
ITUNEXTC : PG
ORIGINAL_TITLE : Johnny English Strikes Again
PRODUCER : Tim Bevan, Chris Clark, Eric Fellner
PUBLISHER : Universal Pictures, StudioCanal, Working Title Films, Perfect World Pictures
RATING : 6.20

Video
ID : 1
Format : AVC
Format/Info : Advanced Video Codec
Format profile : High@L4.1
Format settings : CABAC / 10 Ref Frames
Format settings, CABAC : Yes
Format settings, ReFrames : 10 frames
Codec ID : V_MPEG4/ISO/AVC
Duration : 1 h 28 min
Bit rate : 1 095 kb/s
Width : 750 pixels
Height : 314 pixels
Display aspect ratio : 2.40:1
Frame rate mode : Constant
Frame rate : 23.976 (24000/1001) FPS
Color space : YUV
Chroma subsampling : 4:2:0
Bit depth : 8 bits
Scan type : Progressive
Bits/(Pixel*Frame) : 0.194
Stream size : 691 MiB (93%)
Title : RIP_BY_-=DoMiNo=-
Writing library : x264 core 157 r2935M 545de2f
Encoding settings : cabac=1 / ref=10 / deblock=1:0:0 / analyse=0x3:0x133 / me=umh / subme=11 / psy=1 / psy_rd=1.00:0.05 / mixed_ref=1 / me_range=32 / chroma_me=1 / trellis=2 / 8x8dct=1 / cqm=0 / deadzone=21,11 / fast_pskip=0 / chroma_qp_offset=-3 / threads=6 / lookahead_threads=1 / sliced_threads=0 / nr=0 / decimate=1 / interlaced=0 / bluray_compat=0 / constrained_intra=0 / bframes=10 / b_pyramid=2 / b_adapt=2 / b_bias=0 / direct=3 / weightb=1 / open_gop=0 / weightp=2 / keyint=250 / keyint_min=24 / scenecut=40 / intra_refresh=0 / rc=2pass / mbtree=0 / bitrate=1095 / ratetol=1.0 / qcomp=0.60 / qpmin=0 / qpmax=69 / qpstep=4 / cplxblur=20.0 / qblur=0.5 / ip_ratio=1.40 / pb_ratio=1.30 / aq=3:1.00
Language : English
Default : Yes
Forced : No

Audio
ID : 2
Format : AAC LC SBR
Format/Info : Advanced Audio Codec Low Complexity with Spectral Band Replication
Commercial name : HE-AAC
Format settings : Explicit
Codec ID : A_AAC-2
Duration : 1 h 28 min
Bit rate : 78.7 kb/s
Channel(s) : 2 channels
Channel layout : L R
Sampling rate : 48.0 kHz
Frame rate : 23.438 FPS (2048 SPF)
Compression mode : Lossy
Stream size : 49.8 MiB (7%)
Title : DUB_[Лицензия BD EUR]
Language : Russian
Default : Yes
Forced : No

Text #1
ID : 3
Format : UTF-8
Codec ID : S_TEXT/UTF8
Codec ID/Info : UTF-8 Plain Text
Duration : 1 h 27 min
Bit rate : 0 b/s
Count of elements : 15
Stream size : 459 Bytes (0%)
Title : Forced
Language : Russian
Default : Yes
Forced : Yes

Text #2
ID : 4
Format : UTF-8
Codec ID : S_TEXT/UTF8
Codec ID/Info : UTF-8 Plain Text
Duration : 1 h 27 min
Bit rate : 69 b/s
Count of elements : 1007
Stream size : 44.4 KiB (0%)
Title : Full
Language : Russian
Default : No
Forced : No

Text #3
ID : 5
Format : UTF-8
Codec ID : S_TEXT/UTF8
Codec ID/Info : UTF-8 Plain Text
Duration : 1 h 22 min
Bit rate : 66 b/s
Count of elements : 1301
Stream size : 40.3 KiB (0%)
Title : ENG
Language : English
Default : No
Forced : No

Menu
00:00:00.000 : :Chapter 01
00:05:06.681 : :Chapter 02
00:09:05.378 : :Chapter 03
00:13:14.794 : :Chapter 04
00:19:22.369 : :Chapter 05
00:21:31.832 : :Chapter 06
00:26:41.975 : :Chapter 07
00:32:31.240 : :Chapter 08
00:34:48.085 : :Chapter 09
00:39:49.428 : :Chapter 10
00:45:49.121 : :Chapter 11
00:51:22.204 : :Chapter 12
00:54:31.851 : :Chapter 13
00:58:58.201 : :Chapter 14
01:02:58.441 : :Chapter 15
01:08:21.597 : :Chapter 16
01:11:40.963 : :Chapter 17
01:15:03.415 : :Chapter 18
01:20:54.808 : :Chapter 19
01:23:52.527 : :Chapter 20


Не забывайте говорить Спасибо. Не уходите с раздачи!   
Торрент: Зарегистрирован [11 янв 2019, 09:10]
Статус:
Проверен
 
.torrent скачан: 18708 раз
Хэш: d8d451961a35d56ed3821f2a831b451557587bb7
Размер: 742.07 МБ (778 120 843 байт)
   Стать Автором раздачи
   
Цитата

Вернуться в Зарубежное кино (HDRip, DVDRip)

Кто сейчас на конференции

Сейчас эту тему просматривают: нет зарегистрированных пользователей и гости: 1