The Agony Scene - The Darkest Red (2005) [FLAC|Lossless|tracks + .cue] <Hardcore, Death Metal>

 Статистика раздачи 
Размер: 292.86 МБ   |  Зарегистрирован: 10 янв 2019, 20:19   |   .torrent скачан: 0 раз
Сидеров: 4  [ 0 байт/сек ]     Личеров: 0  [ 0 байт/сек ]  
  
Аватара пользователя
Я на сайте
 
Раздал: 3.89 ТБ
Скачал: 116.48 ГБ
Ратио: 34.198
Сообщения: 204357
Стаж: 1 год 10 месяцев 1 день

The Agony Scene - The Darkest Red (2005)

Жанр: Hardcore, Death Metal
Издание: Roadrunner Records - 168 618 249-2
Продолжительность: 00:37:30

Кодек: FLAC
Битрейт: Lossless
Тип рипа: tracks + .cue

Треклист:
01. Prelude (1:15)
02. The Darkest Red (3:50)
03. Scars of Your Disease (3:30)
04. Screams Turn to Silence (2:56)
05. Sacrifice (2:59)
06. Prey (3:49)
07. Procession (4:37)
08. Suffer (4:33)
09. My Dark Desire (3:50)
10. Scapegoat (2:56)
11. Forever Abandoned (3:16)
Код: Выделить всё
X Lossless Decoder version 20170729 (150.3)

XLD extraction logfile from 2017-11-30 09:20:26 -0500

The Agony Scene / The Darkest Red

Used drive : (null) (null) (revision (null))
Media type : Pressed CD

Ripper mode             : XLD Secure Ripper
Disable audio cache     : OK for the drive with a cache less than 1375KiB
Make use of C2 pointers : NO
Read offset correction  : 6
Max retry count         : 100
Gap status              : Analyzed, Appended (except HTOA)

TOC of the extracted CD
     Track |   Start  |  Length  | Start sector | End sector
    ---------------------------------------------------------
        1  | 00:00:00 | 01:15:02 |         0    |     5626
        2  | 01:15:02 | 03:50:06 |      5627    |    22882
        3  | 05:05:08 | 03:29:73 |     22883    |    38630
        4  | 08:35:06 | 02:55:66 |     38631    |    51821
        5  | 11:30:72 | 02:58:45 |     51822    |    65216
        6  | 14:29:42 | 03:48:59 |     65217    |    82375
        7  | 18:18:26 | 04:36:62 |     82376    |   103137
        8  | 22:55:13 | 04:33:00 |    103138    |   123612
        9  | 27:28:13 | 03:49:43 |    123613    |   140830
       10  | 31:17:56 | 02:56:30 |    140831    |   154060
       11  | 34:14:11 | 03:16:14 |    154061    |   168774

AccurateRip Summary (DiscID: 000e9a2e-00821e0e-8e08ca0b)
    Track 01 : OK (v1+v2, confidence 14/14)
    Track 02 : OK (v1, confidence 12/12)
    Track 03 : OK (v1+v2, confidence 14/14)
    Track 04 : OK (v1+v2, confidence 14/14)
    Track 05 : OK (v1+v2, confidence 14/14)
    Track 06 : OK (v1+v2, confidence 14/14)
    Track 07 : OK (v1+v2, confidence 14/14)
    Track 08 : OK (v1+v2, confidence 14/14)
    Track 09 : OK (v1+v2, confidence 13/13)
    Track 10 : OK (v1+v2, confidence 14/14)
    Track 11 : OK (v1+v2, confidence 14/14)
        ->All tracks accurately ripped.

All Tracks
    Album gain               : -11.28 dB
    Peak                     : 0.998840
    Statistics
        Read error                           : 0
        Jitter error (maybe fixed)           : 0
        Retry sector count                   : 0
        Damaged sector count                 : 0

Track 01
    Filename : /Volumes/Flash Drive/The Agony Scene - The Darkest Red (2005) (168 618 249-2 CD) (FLAC)/01 Prelude.flac
    Pre-gap length : 00:02:00

    Track gain               : 5.93 dB
    Peak                     : 0.529663
    CRC32 hash (test run)    : 7C480EEC
    CRC32 hash               : 7C480EEC
    CRC32 hash (skip zero)   : 0AF5B8A5
    AccurateRip v1 signature : 33CF3B3A
    AccurateRip v2 signature : 01AF6F22
        ->Accurately ripped (v1+v2, confidence 12+2/14)
    Statistics
        Read error                           : 0
        Jitter error (maybe fixed)           : 0
        Retry sector count                   : 0
        Damaged sector count                 : 0

Track 02
    Filename : /Volumes/Flash Drive/The Agony Scene - The Darkest Red (2005) (168 618 249-2 CD) (FLAC)/02 The Darkest Red.flac

    Track gain               : -10.23 dB
    Peak                     : 0.998840
    CRC32 hash (test run)    : 22CFF777
    CRC32 hash               : 22CFF777
    CRC32 hash (skip zero)   : 2E1F9605
    AccurateRip v1 signature : 5D1B5460
    AccurateRip v2 signature : 0CA5811F
        ->Accurately ripped (v1, confidence 12/12)
    Statistics
        Read error                           : 0
        Jitter error (maybe fixed)           : 0
        Retry sector count                   : 0
        Damaged sector count                 : 0

Track 03
    Filename : /Volumes/Flash Drive/The Agony Scene - The Darkest Red (2005) (168 618 249-2 CD) (FLAC)/03 Scars of Your Disease.flac

    Track gain               : -11.26 dB
    Peak                     : 0.998840
    CRC32 hash (test run)    : DBD406C3
    CRC32 hash               : DBD406C3
    CRC32 hash (skip zero)   : 0F60CF1F
    AccurateRip v1 signature : FE21A593
    AccurateRip v2 signature : 1BE3C50C
        ->Accurately ripped (v1+v2, confidence 12+2/14)
    Statistics
        Read error                           : 0
        Jitter error (maybe fixed)           : 0
        Retry sector count                   : 0
        Damaged sector count                 : 0

Track 04
    Filename : /Volumes/Flash Drive/The Agony Scene - The Darkest Red (2005) (168 618 249-2 CD) (FLAC)/04 Screams Turn to Silence.flac

    Track gain               : -11.80 dB
    Peak                     : 0.998840
    CRC32 hash (test run)    : 0128870A
    CRC32 hash               : 0128870A
    CRC32 hash (skip zero)   : 6C7C077E
    AccurateRip v1 signature : 0B20AE64
    AccurateRip v2 signature : 68FFEB20
        ->Accurately ripped (v1+v2, confidence 12+2/14)
    Statistics
        Read error                           : 0
        Jitter error (maybe fixed)           : 0
        Retry sector count                   : 0
        Damaged sector count                 : 0

Track 05
    Filename : /Volumes/Flash Drive/The Agony Scene - The Darkest Red (2005) (168 618 249-2 CD) (FLAC)/05 Sacrifice.flac

    Track gain               : -11.19 dB
    Peak                     : 0.998840
    CRC32 hash (test run)    : 5404B300
    CRC32 hash               : 5404B300
    CRC32 hash (skip zero)   : 247B8C1E
    AccurateRip v1 signature : 19705240
    AccurateRip v2 signature : 59155193
        ->Accurately ripped (v1+v2, confidence 12+2/14)
    Statistics
        Read error                           : 0
        Jitter error (maybe fixed)           : 0
        Retry sector count                   : 0
        Damaged sector count                 : 0

Track 06
    Filename : /Volumes/Flash Drive/The Agony Scene - The Darkest Red (2005) (168 618 249-2 CD) (FLAC)/06 Prey.flac

    Track gain               : -12.30 dB
    Peak                     : 0.998840
    CRC32 hash (test run)    : 087196B0
    CRC32 hash               : 087196B0
    CRC32 hash (skip zero)   : FCA7EB99
    AccurateRip v1 signature : 881915AC
    AccurateRip v2 signature : 71138373
        ->Accurately ripped (v1+v2, confidence 12+2/14)
    Statistics
        Read error                           : 0
        Jitter error (maybe fixed)           : 0
        Retry sector count                   : 0
        Damaged sector count                 : 0

Track 07
    Filename : /Volumes/Flash Drive/The Agony Scene - The Darkest Red (2005) (168 618 249-2 CD) (FLAC)/07 Procession.flac

    Track gain               : -10.56 dB
    Peak                     : 0.998840
    CRC32 hash (test run)    : 0928C42E
    CRC32 hash               : 0928C42E
    CRC32 hash (skip zero)   : 2CF97423
    AccurateRip v1 signature : 93F1B680
    AccurateRip v2 signature : AED6959C
        ->Accurately ripped (v1+v2, confidence 12+2/14)
    Statistics
        Read error                           : 0
        Jitter error (maybe fixed)           : 0
        Retry sector count                   : 0
        Damaged sector count                 : 0

Track 08
    Filename : /Volumes/Flash Drive/The Agony Scene - The Darkest Red (2005) (168 618 249-2 CD) (FLAC)/08 Suffer.flac

    Track gain               : -10.44 dB
    Peak                     : 0.998840
    CRC32 hash (test run)    : F27ACEB0
    CRC32 hash               : F27ACEB0
    CRC32 hash (skip zero)   : 9E0466A4
    AccurateRip v1 signature : 7CF5FD47
    AccurateRip v2 signature : 5E8ECF93
        ->Accurately ripped (v1+v2, confidence 12+2/14)
    Statistics
        Read error                           : 0
        Jitter error (maybe fixed)           : 0
        Retry sector count                   : 0
        Damaged sector count                 : 0

Track 09
    Filename : /Volumes/Flash Drive/The Agony Scene - The Darkest Red (2005) (168 618 249-2 CD) (FLAC)/09 My Dark Desire.flac
    Pre-gap length : 01:29:46

    Track gain               : -11.61 dB
    Peak                     : 0.998840
    CRC32 hash (test run)    : 36597434
    CRC32 hash               : 36597434
    CRC32 hash (skip zero)   : CD20DB88
    AccurateRip v1 signature : 8067ACEA
    AccurateRip v2 signature : 81BC2CA8
        ->Accurately ripped (v1+v2, confidence 11+2/13)
    Statistics
        Read error                           : 0
        Jitter error (maybe fixed)           : 0
        Retry sector count                   : 0
        Damaged sector count                 : 0

Track 10
    Filename : /Volumes/Flash Drive/The Agony Scene - The Darkest Red (2005) (168 618 249-2 CD) (FLAC)/10 Scapegoat.flac

    Track gain               : -10.09 dB
    Peak                     : 0.998840
    CRC32 hash (test run)    : C35B1198
    CRC32 hash               : C35B1198
    CRC32 hash (skip zero)   : 1B6A5BC7
    AccurateRip v1 signature : 74786CA8
    AccurateRip v2 signature : 5C255250
        ->Accurately ripped (v1+v2, confidence 12+2/14)
    Statistics
        Read error                           : 0
        Jitter error (maybe fixed)           : 0
        Retry sector count                   : 0
        Damaged sector count                 : 0

Track 11
    Filename : /Volumes/Flash Drive/The Agony Scene - The Darkest Red (2005) (168 618 249-2 CD) (FLAC)/11 Forever Abandoned.flac

    Track gain               : -10.55 dB
    Peak                     : 0.998840
    CRC32 hash (test run)    : 8E0E28A2
    CRC32 hash               : 8E0E28A2
    CRC32 hash (skip zero)   : C9683DB4
    AccurateRip v1 signature : 4B19FD1B
    AccurateRip v2 signature : 32DD9593
        ->Accurately ripped (v1+v2, confidence 12+2/14)
    Statistics
        Read error                           : 0
        Jitter error (maybe fixed)           : 0
        Retry sector count                   : 0
        Damaged sector count                 : 0

No errors occurred

End of status report

-----BEGIN XLD SIGNATURE-----
yzrSR6XS4qCXfOtTAb6U233G7ud3uOZCnxxQkviSsr1i9sQCu1.n03yA2rzb.0GBzA4cv58cA2FiYJcHGfhtS3guNsHqvQ4ZInOaTJK
-----END XLD SIGNATURE-----

#7
Код: Выделить всё
[b]Поглощение/вытеснение [/b]
[b]Только с согласия релизера[/b]
[b][u][i]Pashketan[/b][/i][/u]
Не забывайте говорить Спасибо. Не уходите с раздачи!   
Торрент: Зарегистрирован [10 янв 2019, 20:19] Для скачивания .torrent
необходима регистрация
Или скачать с помощью
MediaGet
Статус:
Проверен
 
.torrent скачан: 0 раз
Хэш: 13192af99d6a373cb6c8e0308eaef1951adb48bc
Размер: 292.86 МБ (307 083 361 байт)
   Стать Автором раздачи
   
Цитата

Вернуться в Metal

Кто сейчас на конференции

Сейчас эту тему просматривают: нет зарегистрированных пользователей и гости: 1