Нация Z / Z Nation [S05] (2018) WEBRip 720p | OMSKBIRD

 Статистика раздачи 
Размер: 12.47 ГБ   |  Зарегистрирован: 30 дек 2018, 13:36   |   .torrent скачан: 339 раз
Сидеров: 14  [ 0 байт/сек ]     Личеров: 18  [ 0 байт/сек ]  
  
Аватара пользователя
Главный редактор
Главный редактор
 
Раздал: 90.01 ТБ
Скачал: 3.78 ТБ
Ратио: 24.248
Сообщения: 274898
Стаж: 9 лет 1 месяц 21 день
Откуда: Санкт-Петербург
СообщениеДобавлено: 30 дек 2018, 13:36


Информация о фильме
Название: Нация Z
Оригинальное название: Z Nation
Год выхода:2018
Жанр: Ужасы, фантастика, зомби, апокалипсис
Режиссер: Джон Хайамс, Карл Шэфер
В ролях: ХэКит Аллан, Том Эверетт Скотт, Келлита Смит, Расселл Ходжкинсон, Нат Занг, Анастасия Баранова, ДиДжей Куаллс, Пасэй Пау, Мэтт Седеньо, Майкл Уэлш, Эмилио Ривера, Хэролд Перрино, Лиза Коронадо, Дональд Коррен, Сара Коутс, Джина Гершон, Розали Миллер, Фил Эндрейд, Марк Карр, Ким Литтл, Кит Кокс, Аарон Трэйнор, Алекс Терзиефф и др.
О фильме:
Описание: Эпидемия вируса зомби накрыла весь мир. В подвалах секретного комплекса проводят испытания вакцины, заражая поочередно трех заключенных. Выживает только один. Алвин Бернард Мерфи, та ещё зараза в прямом и переносном смысле. Он становится единственной надеждой человечества на создания вакцины против зомби. Группе выживших предстоит переправить его в другой секретный комплекс, где беднягу разберут на анализы и вытянут из него тайны антизомбина. Мерфи постепенно обнаруживает, что вакцина в его теле мутировала, сделав его своего рода зомби-мессией. Дальнейшие приключения безумной команды и их подопечного разворачиваются на фоне зомби-апокалипсиса, зунами, зорнадо, зомби-травки, которую явно покуривали сценаристы. Сериал изящно и с легкостью пародирует штампы зомби-муви, а так же наполнен совершенно прекрасными отсылками (чего стоят хотя бы доктор Куриан, главзлодей серии игр "Дом мертвых", Джордж Мартин-зомби, дописывающий свою бессмертную сагу и библейский сюжет с рождением священного зомби-дитятки и пришествием волхвов-зомби). Рекомендуется фанатам зомби-муви, людям с чувством юмора и стиля.



Страна: США
Студия:The Asylum, Go2 Digital Media
Продолжительность: ~00:44:00 серия
Перевод: Любительский (многоголосый закадровый) | OMSKBIRD records

Файл
Кодек: AVC/H.264
Качество: WEBRip 720p
Видео: 1280x576, 23.976 fps, ~2959 kbps, 0.167 bit/pixel
Звук:
Аудио rus:AC3, 48 kHz, 2 ch, 192 Kbps | OmskBird
Субтитры: отсутствуют
Реклама: присутствует

Семпл

General
Unique ID : 285904638291458357247997348003540602580 (0xD7173AFC4FD055EE7B45CB48D5178ED4)
Complete name : G:Z.Nation.S05.720p.WEBRip.OmskBirdZ.Nation.S05E01.720p.WEBRip.OmskBird.mkv
Format : Matroska
Format version : Version 4 / Version 2
File size : 987 MiB
Duration : 43 min 46 s
Overall bit rate : 3 153 kb/s
Encoded date : UTC 2018-10-07 05:33:35
Writing application : mkvmerge v27.0.0 ('Metropolis') 64-bit
Writing library : libebml v1.3.6 + libmatroska v1.4.9
Cover : Yes
Attachments : small_cover.jpg / small_cover_land.jpg / cover.jpg / cover_land.jpg

Video
ID : 1
Format : AVC
Format/Info : Advanced Video Codec
Format profile : Main@L3.1
Format settings : CABAC / 3 Ref Frames
Format settings, CABAC : Yes
Format settings, RefFrames : 3 frames
Codec ID : V_MPEG4/ISO/AVC
Duration : 43 min 46 s
Bit rate : 2 959 kb/s
Width : 1 280 pixels
Height : 576 pixels
Display aspect ratio : 2.222
Frame rate mode : Constant
Frame rate : 23.976 (24000/1001) FPS
Standard : PAL
Color space : YUV
Chroma subsampling : 4:2:0
Bit depth : 8 bits
Scan type : Progressive
Bits/(Pixel*Frame) : 0.167
Stream size : 927 MiB (94%)
Language : English
Default : Yes
Forced : No
Color range : Limited
Color primaries : BT.601 PAL
Transfer characteristics : BT.470 System B/G
Matrix coefficients : BT.470 System B/G

Audio
ID : 2
Format : AC-3
Format/Info : Audio Coding 3
Codec ID : A_AC3
Duration : 43 min 46 s
Bit rate mode : Constant
Bit rate : 192 kb/s
Channel(s) : 2 channels
Channel positions : Front: L R
Sampling rate : 48.0 kHz
Frame rate : 31.250 FPS (1536 SPF)
Bit depth : 16 bits
Compression mode : Lossy
Stream size : 60.1 MiB (6%)
Title : OmskBird
Language : Russian
Service kind : Complete Main
Default : Yes
Forced : No




Релиз от: OmskBird
Не забывайте говорить Спасибо. Не уходите с раздачи!   
Торрент: Зарегистрирован [30 дек 2018, 13:36]
Статус:
Проверен
 
.torrent скачан: 339 раз
Хэш: 117a4d955c4b1cb3dfe6040d19b639e39d4ff113
Размер: 12.47 ГБ (13 385 440 136 байт)
   Стать Автором раздачи
   
Цитата
  • Похожие торренты
    Ответы
    Просмотры
    Последнее сообщение

Вернуться в Нация Z / Z Nation

Кто сейчас на конференции

Сейчас эту тему просматривают: нет зарегистрированных пользователей и гости: 1