Звездные врата: Начало / Stargate Origins [S01] (2018) WEB-DLRip от Generalfilm | КПК | AlexFilm

 Статистика раздачи 
Размер: 514.79 МБ   |  Зарегистрирован: 28 авг 2018, 16:36   |   .torrent скачан: 11 раз
Сидеров: 10  [ 0 байт/сек ]     Личеров: 1  [ 0 байт/сек ]  
  
Аватара пользователя
Главный редактор
Главный редактор
Я на сайте
 
Раздал: 86.65 ТБ
Скачал: 3.77 ТБ
Ратио: 23.413
Сообщения: 218252
Стаж: 8 лет 9 месяцев 28 дней
Откуда: Санкт-Петербург

Информация о фильме
Название: Звездные врата: Начало
Оригинальное название: Stargate Origins
Год выхода: 2018
Жанр: Фантастика, фэнтези, боевик, приключения
Режиссер: Мерседес Морган
В ролях: Элли Галл, Коннор Триннир, Шван Аладдин, Салом Азизи, Мишель Джубили Гонсалес, Линкольн Хопп и др.

О фильме:
Главной действующей героиней приквела станет молодая Кэтрин Лэнгфорд, дочь профессора археологии Пола Лэнгфорда, которая в детстве помогла найти Звездные врата и в течение нескольких десятилетий пыталась выяснить, как заставить их работать. Кэтрин предстоит совершить неожиданное путешествие в целях разгадки тайны, лежащей за Звездными вратами, и спасения мира от невообразимого мрака.



Страна: США
Студия: Metro-Goldwyn-Mayer Studios, New Form
Продолжительность: 10 x ~00:10:00
Перевод: Профессиональный (многоголосый, закадровый) [AlexFilm]

Файл
Формат: MP4
Качество: WEB-DLRip | КПК
Видео: MPEG-4 AVC (x264), 640x320, ~500 kbps, 23.976 fps
Аудио: AAC LC, 48.0 KHz, 2 ch, 128 Kbps
Субтитры: Нет
Семпл


Complete name : L:киноZvjozdnye.Vrata.AVC.KPK.GeneralfilmZvjozdnye.Vrata.Nachalo.S01.2018.AVC.WEB-DLRip.KPK.AF.GFZvjozdnye.Vrata.Nachalo.s01e01.2018.AVC.WEB-DLRip.KPK.AF.GF.mp4
Format : MPEG-4
Codec ID : M4V (isom/iso2/avc1)
File size : 45.8 MiB
Duration : 10 min 6 s
Overall bit rate mode : Variable
Overall bit rate : 634 kb/s
Writing application : Lavf53.19.0

Video
ID : 1
Format : AVC
Format/Info : Advanced Video Codec
Format profile : High@L4.1
Format settings : CABAC / 8 Ref Frames
Format settings, CABAC : Yes
Format settings, ReFrames : 8 frames
Codec ID : avc1
Codec ID/Info : Advanced Video Coding
Duration : 10 min 6 s
Bit rate : 500 kb/s
Width : 640 pixels
Height : 320 pixels
Display aspect ratio : 2.000
Frame rate mode : Constant
Frame rate : 23.976 FPS
Color space : YUV
Chroma subsampling : 4:2:0
Bit depth : 8 bits
Scan type : Progressive
Bits/(Pixel*Frame) : 0.102
Stream size : 36.1 MiB (79%)
Writing library : x264 core 146 r2538 121396c
Encoding settings : cabac=1 / ref=8 / deblock=1:-2:-2 / analyse=0x3:0x133 / me=umh / subme=10 / psy=1 / psy_rd=1.00:0.00 / mixed_ref=1 / me_range=24 / chroma_me=1 / trellis=2 / 8x8dct=1 / cqm=0 / deadzone=21,11 / fast_pskip=1 / chroma_qp_offset=-2 / threads=12 / lookahead_threads=2 / sliced_threads=0 / nr=0 / decimate=0 / interlaced=0 / bluray_compat=0 / constrained_intra=0 / bframes=8 / b_pyramid=2 / b_adapt=2 / b_bias=0 / direct=3 / weightb=1 / open_gop=0 / weightp=2 / keyint=240 / keyint_min=121 / scenecut=40 / intra_refresh=0 / rc_lookahead=40 / rc=2pass / mbtree=1 / bitrate=500 / ratetol=1.0 / qcomp=0.60 / qpmin=0 / qpmax=69 / qpstep=4 / cplxblur=20.0 / qblur=0.5 / ip_ratio=1.40 / aq=1:1.00
Menus : 3

Audio
ID : 2
Format : AAC
Format/Info : Advanced Audio Codec
Format profile : LC
Codec ID : mp4a-40-2
Duration : 10 min 6 s
Bit rate mode : Variable
Bit rate : 127 kb/s
Channel(s) : 2 channels
Channel positions : Front: L R
Sampling rate : 48.0 kHz
Frame rate : 46.875 FPS (1024 SPF)
Compression mode : Lossy
Stream size : 9.21 MiB (20%)
Default : Yes
Alternate group : 1
Menus : 3

Релиз от:
Не забывайте говорить Спасибо. Не уходите с раздачи!   
Торрент: Зарегистрирован [28 авг 2018, 16:36]
Статус:
Проверен
 
.torrent скачан: 11 раз
Хэш: 242d0ea7fff4089db44e251ab0853e2906f047fb
Размер: 514.79 МБ (539 793 443 байт)
   Стать Автором раздачи
   
Цитата

Вернуться в Происхождение / Origin

Кто сейчас на конференции

Сейчас эту тему просматривают: нет зарегистрированных пользователей и гости: 1