Мир Дикого запада / Западный мир / Westworld [S02] (2018) WEB-DLRip-AVC от qqss44 & MegaPeer | D | Amedia

 Статистика раздачи 
Размер: 12.51 ГБ   |  Зарегистрирован: 03 июл 2018, 17:11   |   .torrent скачан: 5 раз
Сидеров: 6  [ 0 байт/сек ]     Личеров: 3  [ 0 байт/сек ]  
  
Аватара пользователя
 
Раздал: 256.39 ГБ
Скачал: 432.89 ГБ
Ратио: 0.672
Сообщения: 193132
Стаж: 8 лет 3 месяца 3 дня




Анонсы 1080p от qqss44


═╬ Мир Дикого запада ╬═



Информация о фильме
✦ Год выхода: 2018
✦ Название: Мир Дикого запада / Западный мир
✦ Жанр: фантастика, триллер, вестерн
✦ Оригинальное название: Westworld
✦ Режиссер: Джонатан Нолан, Джонни Кэмпбелл, Ричард Дж. Льюис
✦ Сценарий: Майкл Крайтон, Джонатан Нолан, Лиза Джой
✦ В ролях: Энтони Хопкинс, Эд Харрис, Эван Рэйчел Вуд, Джеймс Марсден, Тэнди Ньютон, Джеффри Райт, Тесса Томпсон, Джимми Симпсон, Родриго Санторо, Шеннон Мари Вудворд


Описание фильма
В футуристическом парке развлечений андроиды на фоне для исторических декораций становятся рабами людей, выполняя рутинные задания, пока в один момент сбой в программе не превращает их в опасных убийц.



✦ Выпушено: США, Bad Robot, Jerry Weintraub Productions, Kilter Films, Warner Bros. Television
✦ Продолжительность: ~ 01:08:00 серия
✦ Перевод: профессиональный, дублированный -
Amedia (Кравец)



Информация о файле
✦ Формат: | MKV | x264 |
✦ Качество: WEB-DLRip-AVC
✦ Видео: X264/MPEG4-AVC | 1024x576 (16:9) | ~2002 kbps | 25 fps
✦ Аудио Rus: AC3 | 48 KHz | 5.1 (Front: L С R Side: L R) + LFE | ~448 kbps
✦ Аудио Eng: AC3 | 48 KHz | 5.1 (Front: L С R Side: L R) + LFE | ~448 kbps
✦ Субтитры: форс. и полные (амедиа) | английские |


релиз от qqss44
за исходник звука большое спасибо casstudio в лице karabas



Общее
Уникальный идентификатор : 191848436013702538338315767287974694070 (0x9054AA2E6252CCF084A527720BB38CB6)
Полное имя : X:�0000Westworld (Season 02) AVCWestworld.S02E01.DUB.DD5.1.MegaPeer.(qqss44).mkv
Формат : Matroska
Версия формата : Version 2
Размер файла : 1,37 Гбайт
Продолжительность : 1 ч. 7 м.
Общий поток : 2893 Кбит/сек
Дата кодирования : UTC 2018-05-04 14:26:31
Программа кодирования : mkvmerge v5.8.0 ('No Sleep / Pillow') built on Sep 2 2012 15:37:04
Библиотека кодирования : libebml v1.2.3 + libmatroska v1.3.0

Видео
Идентификатор : 1
Формат : AVC
Формат/Информация : Advanced Video Codec
Профиль формата : High@L4.1
Параметр CABAC формата : Да
Параметр ReFrames формата : 11 кадров
Идентификатор кодека : V_MPEG4/ISO/AVC
Продолжительность : 1 ч. 7 м.
Битрейт : 2002 Кбит/сек
Ширина : 1024 пикселя
Высота : 576 пикселей
Соотношение сторон : 16:9
Режим частоты кадров : Постоянный
Частота кадров : 25,000 кадров/сек
Цветовое пространство : YUV
Субдискретизация насыщенности : 4:2:0
Битовая глубина : 8 бит
Тип развёртки : Прогрессивная
Бит/(Пиксели*Кадры) : 0.136
Размер потока : 940 Мбайт (67%)
Библиотека кодирования : x264 core 152 r2851 ba24899
Настройки программы : cabac=1 / ref=11 / deblock=1:-3:-3 / analyse=0x3:0x113 / me=umh / subme=11 / psy=1 / psy_rd=1.00:0.00 / mixed_ref=1 / me_range=32 / chroma_me=1 / trellis=2 / 8x8dct=1 / cqm=0 / deadzone=21,11 / fast_pskip=0 / chroma_qp_offset=-2 / threads=12 / lookahead_threads=3 / sliced_threads=0 / nr=0 / decimate=0 / interlaced=0 / bluray_compat=0 / constrained_intra=0 / bframes=11 / b_pyramid=2 / b_adapt=2 / b_bias=0 / direct=3 / weightb=1 / open_gop=0 / weightp=2 / keyint=250 / keyint_min=25 / scenecut=40 / intra_refresh=0 / rc_lookahead=40 / rc=2pass / mbtree=0 / bitrate=2002 / ratetol=1.0 / qcomp=0.70 / qpmin=0 / qpmax=69 / qpstep=4 / cplxblur=20.0 / qblur=0.5 / vbv_maxrate=50000 / vbv_bufsize=62500 / nal_hrd=none / filler=0 / ip_ratio=1.40 / pb_ratio=1.30 / aq=3:0.80
Язык : English
Default : Да
Forced : Нет

Аудио #1
Идентификатор : 2
Формат : AC-3
Формат/Информация : Audio Coding 3
Расширение режима : CM (complete main)
Параметр Endianness формата : Big
Идентификатор кодека : A_AC3
Продолжительность : 1 ч. 7 м.
Вид битрейта : Постоянный
Битрейт : 448 Кбит/сек
Каналы : 6 каналов
Расположение каналов : Front: L C R, Side: L R, LFE
Частота : 48,0 КГц
Частота кадров : 31,250 кадров/сек (1536 spf)
Метод сжатия : С потерями
Размер потока : 217 Мбайт (15%)
Язык : Russian
Default : Да
Forced : Нет

Аудио #2
Идентификатор : 3
Формат : AC-3
Формат/Информация : Audio Coding 3
Расширение режима : CM (complete main)
Параметр Endianness формата : Big
Идентификатор кодека : A_AC3
Продолжительность : 1 ч. 7 м.
Вид битрейта : Постоянный
Битрейт : 448 Кбит/сек
Каналы : 6 каналов
Расположение каналов : Front: L C R, Side: L R, LFE
Частота : 48,0 КГц
Частота кадров : 31,250 кадров/сек (1536 spf)
Метод сжатия : С потерями
Размер потока : 217 Мбайт (15%)
Язык : English
Default : Нет
Forced : Нет

Текст #1
Идентификатор : 4
Формат : UTF-8
Идентификатор кодека : S_TEXT/UTF8
Идентификатор кодека/Информация : UTF-8 Plain Text
Язык : Russian
Default : Нет
Forced : Нет

Текст #2
Идентификатор : 5
Формат : UTF-8
Идентификатор кодека : S_TEXT/UTF8
Идентификатор кодека/Информация : UTF-8 Plain Text
Язык : English
Default : Нет
Forced : Нет
Когда раздача ведётся путём добавления новых серий, при каждом добавлении создётся новый торрент. Чтобы начать докачку новой серии, пользователям необходимо сделать следующее:
(1) остановить скачивание,
(2) удалить старый торрент у себя из клиента (старые серии удалять не надо),
(3) скачать новый торрент и запустить его у себя в клиенте вместо старого, при этом указать клиенту путь в старую папку, куда и должно происходить скачивание новых серий.
Ваш клиент при этом должен произвести хеширование (проверку) старой папки (если не производит сам - помогите ему сделать это), и будет докачивать только те серии, которых у вас ещё нет. Старые серии при этом не удаляются, а продолжают раздаваться!
Eсли вы уже удалили старые серии, то предотвратить повторную закачку старых серий можно, отжав галочку в соответсвующих местах при запуске нового торрента. По возможности, желательно не удалять старые серии как можно дольше, чтобы релизёр не столько продолжал раздавать старые серии, а смог сконцентрироваться на новых.
Релиз от:
Не забывайте говорить Спасибо. Не уходите с раздачи!   
Торрент: Зарегистрирован [03 июл 2018, 17:11]
Статус:
Проверен
 
.torrent скачан: 5 раз
Хэш: 4da0cf8a155aa43ff6596238de045910b8e05727
Размер: 12.51 ГБ (13 435 461 825 байт)
   Стать Автором раздачи
   
Цитата

Вернуться в Мир Дикого запада / Westworld

Кто сейчас на конференции

Сейчас эту тему просматривают: нет зарегистрированных пользователей и гости: 1