[ATV 3] Детство Шелдона / Young Sheldon / Сезон 2, Серия 1-10 из 22 (Джаффар Махмуд, Ховард Дойч, Марк Сендроуски) [2018, США, комедия, WEB-DL HD (1080p)] MVO (Кураж-Бамбей) + Original + Sub (eng)

 Статистика раздачи 
Размер: 8.55 ГБ   |  Зарегистрирован: 28 сен 2018, 17:53   |   .torrent скачан: 1 раз
Сидеров: 37  [ 0 байт/сек ]     Личеров: 11  [ 0 байт/сек ]  
  
Аватара пользователя
Главный редактор
Главный редактор
 
Раздал: 90.01 ТБ
Скачал: 3.78 ТБ
Ратио: 24.248
Сообщения: 274106
Стаж: 9 лет 1 месяц 17 дней
Откуда: Санкт-Петербург

Детство Шелдона / Young Sheldon / Сезон 2


Год выпуска: 2018
Страна: США
Жанр: комедия
Продолжительность: 00:30:00
Перевод: Профессиональный (одноголосый закадровый) Kuraj-Bambey
Оригинальная аудиодорожка: Есть
Cубтитры: Английские (SDH)
Режиссёр: Джаффар Махмуд, Ховард Дойч, Марк Сендроуски
Сценарий: Чак Лорри, Стивен Моларо, Damir Konjicija
Продюсер: Тимоти Маркс, Чак Лорри, Стивен Моларо
Оператор: Тим Зурштедт, Базз Фейтшанс IV
Композитор: Джефф Кардони, Джон Дебни
Художник: Джозеф П. Лаки, Ричард Тойон, Колин Д. Ирвин
Монтаж: Дэвид Хелфанд, Стив Раш, Джефф Сейбеник
В ролях: Иэн Армитедж, Зои Перри, Лэнс Барбер, Монтана Джордан, Реган Реворд, Джим Парсонс, Энни Поттс, Ryan Phuong, Уайатт МакКлюр, Валери Махаффей
Описание: История о непростом детстве вундеркинда Шелдона Купера. Родители юного гения не разделяют увлечения сына наукой: его мать очень религиозна, а отец, бывший футбольный тренер, предпочитает проводить вечера в компании пива и телевизора. Со сверстниками тоже не ладится, ведь Шелдона куда больше детских игрушек интересует, где можно взять обогащённый уран для научных экспериментов.

Качество: WEB-DL 1080p (iTunes US)
Контейнер: M4V
Видео: H.264/AVC, 1912x1072p (1.78:1), 23.976 fps, ~0 kbps, ~0 bit/pixel
Аудио №1: Русский LC-AAC 2.0, 48 kHz, 133 kbps
Аудио №2: Русский AC3 5.1, 48 kHz, 384 kbps
Аудио №3: Английский LC-AAC 2.0, 48 kHz, 157 kbps
Аудио №4: Английский AC3 5.1, 48 kHz, 384 kbps
Субтитры №1: Английские - скрытые субтитры: CEA-608
Субтитры №2: Английские- SDH для глухих: TX3G
Реклама: отсутствует
Детство Шелдона, Сезон 2

Young Sheldon, Season 2
Код:
Код: Выделить всё
01. A High-Pitched Buzz and Training Wheels (2018-09-24) / null (27.09.2018 13:14:12)
02. A Rival Prodigy and Sir Isaac Neutron (2018-09-27) / null (02.10.2018 9:13:11)
03. A Crisis of Faith and Octopus Aliens (2018-10-04) / null (09.10.2018 7:31:14)
04. A Financial Secret and Fish Sauce (2018-10-11) / null (16.10.2018 8:57:59)
05. A Research Study and Czechoslovakian Wedding Pastries (2018-10-18) / null (23.10.2018 7:22:23)
06. Seven Deadly Sins and a Small Carl Sagan (2018-10-25) / null (30.10.2018 7:38:53)
07. Carbon Dating and a Stuffed Raccoon (2018-11-01) / null (06.11.2018 10:07:18)
08. An 8-Bit Princess and a Flat Tire Genius (2018-11-08) / null (13.11.2018 9:55:05)
09. Family Dynamics and a Red Fiero (2018-11-15) / null (20.11.2018 11:38:49)
10. A Stunted Childhood and a Can of Fancy Mixed Nuts (2018-12-06) / null (23.12.2018 8:33:32)
11. TBA (2019-01-10)

Код:
Код: Выделить всё
Name: A High-Pitched Buzz and Training Wheels
Sort Name: High-Pitched Buzz and Training Wheels
Artist: Young Sheldon
Sort Artist: Young Sheldon
Release Date: 2018-09-24T07:00:00Z
Album: Young Sheldon, Season 2
Sort Album: Young Sheldon, Season 2
Track: 1 of 22
Disk: 1 of 1
Genre: Comedy
Cover Art pieces: 1
Album Artist: Young Sheldon
Copyright: В© 2018 Warner Bros. Entertainment Inc.
Content Rating: None
HD Video: yes
Media Type: TV Show
TV Show: Young Sheldon
TV Network: CBS
TV Episode Number: 201
Short Description: In the season premiere episode, Sheldon dismantles the refrigerator to stop an annoying hum; and
Long Description: In the season premiere episode, Sheldon dismantles the refrigerator to stop an annoying hum; and then must get a paper route to pay for the repairs.
TV Episode: 1
TV Season: 2
Content ID: 1437159497
Artist ID: 1271849731
Playlist ID: 1423376556
Genre ID: 4000
xid: WarnerBrosEnt:vendor_id:888574767273
iTunes Store Country: United States

Код:
Код: Выделить всё
General
Complete name                            : \Young Sheldon\Season 2\01 A High-Pitched Buzz and Training Wheels (1080p HD).m4v
Format                                   : MPEG-4
Codec ID                                 : M4V  (M4V /mp42/isom)
File size                                : 868 MiB
Duration                                 : 19 min 22 s
Overall bit rate mode                    : Variable
Overall bit rate                         : 6 263 kb/s
Collection                               : Young Sheldon
Season                                   : 2
Album                                    : Young Sheldon, Season 2
Album/Sorted by                          : Young Sheldon, Season 2
Album/Performer                          : Young Sheldon
Part                                     : 1
Part/Position                            : 1
Part/Total                               : 1
Track name                               : A High-Pitched Buzz and Training Wheels
Track name/Position                      : 1
Track name/Total                         : 22
Performer                                : Young Sheldon
Performer/Sorted by                      : Young Sheldon
Genre                                    : Comedy
ContentType                              : TV Show
Description                              : In the season premiere episode, Sheldon dismantles the refrigerator to stop an annoying hum; and / For 10-year-old Sheldon Cooper it isn't easy growing up in East Texas.  Being a once-in-a-generation mind capable of advanced mathematics and science isn't always helpful in a land where church and football are king.  And while the vulnerable, gifted and somewhat naïve Sheldon deals with the world, his very normal family must find a way to deal with him.
Recorded date                            : UTC 2018-09-24 07:00:00
Encoded date                             : UTC 2018-09-24 17:38:16
Tagged date                              : UTC 2018-09-24 17:38:18
Copyright                                : © 2018 Warner Bros. Entertainment Inc.
Cover                                    : Yes
Rating                                   : None
AppleStoreCatalogID                      : 1437159497
AlbumTitleID                             : 1271849731
PlayListID                               : 1423376556
GenreID                                  : 4000
Part_ID                                  : 201
Title/Sort                               : High-Pitched Buzz and Training Wheels
ContentRating                            : us-tv||0|
LongDescription                          : In the season premiere episode, Sheldon dismantles the refrigerator to stop an annoying hum; and then must get a paper route to pay for the repairs.
TVNetworkName                            : CBS
Vendor                                   : WarnerBrosEnt:vendor_id:888574767273
Flavour                                  : 18:1080p
AppleStoreCountry                        : United States
Video
ID                                       : 1
Format                                   : AVC
Format/Info                              : Advanced Video Codec
Format profile                           : High@L4
Format settings                          : CABAC / 4 Ref Frames
Format settings, CABAC                   : Yes
Format settings, RefFrames               : 4 frames
Codec ID                                 : avc1
Codec ID/Info                            : Advanced Video Coding
Duration                                 : 19 min 22 s
Bit rate                                 : 5 195 kb/s
Maximum bit rate                         : 12.5 Mb/s
Width                                    : 1 912 pixels
Height                                   : 1 072 pixels
Display aspect ratio                     : 16:9
Frame rate mode                          : Constant
Frame rate                               : 23.976 (23976/1000) FPS
Color space                              : YUV
Chroma subsampling                       : 4:2:0
Bit depth                                : 8 bits
Scan type                                : Progressive
Bits/(Pixel*Frame)                       : 0.106
Stream size                              : 720 MiB (83%)
Title                                    : Core Media Video
Language                                 : English
Encoded date                             : UTC 2018-09-24 17:38:16
Tagged date                              : UTC 2018-09-24 17:38:18
Color range                              : Limited
Color primaries                          : BT.709
Transfer characteristics                 : BT.709
Matrix coefficients                      : BT.709
Audio #1
ID                                       : 2
Format                                   : AAC
Format/Info                              : Advanced Audio Codec
Format profile                           : LC
Codec ID                                 : mp4a-40-2
Duration                                 : 19 min 22 s
Bit rate mode                            : Variable
Bit rate                                 : 132 kb/s
Maximum bit rate                         : 206 kb/s
Channel(s)                               : 2 channels
Channel positions                        : Front: L R
Sampling rate                            : 48.0 kHz
Frame rate                               : 46.875 FPS (1024 SPF)
Compression mode                         : Lossy
Stream size                              : 18.4 MiB (2%)
Title                                    : Core Media Audio
Language                                 : Russian
Default                                  : Yes
Alternate group                          : 1
Encoded date                             : UTC 2018-09-24 17:38:16
Tagged date                              : UTC 2018-09-24 17:38:18
Fallback From                            : 3
tagc                                     : public.translation.voice-over
Audio #2
ID                                       : 3
Format                                   : AC-3
Format/Info                              : Audio Coding 3
Format settings, Endianness              : Big
Codec ID                                 : ac-3
Duration                                 : 19 min 22 s
Bit rate mode                            : Constant
Bit rate                                 : 384 kb/s
Maximum bit rate                         : 406 kb/s
Channel(s)                               : 6 channels
Channel positions                        : Front: L C R, Side: L R, LFE
Sampling rate                            : 48.0 kHz
Frame rate                               : 31.250 FPS (1536 SPF)
Bit depth                                : 16 bits
Compression mode                         : Lossy
Stream size                              : 53.2 MiB (6%)
Title                                    : Core Media Audio
Language                                 : Russian
Service kind                             : Complete Main
Default                                  : Inherited From: 2
Alternate group                          : 1
Encoded date                             : UTC 2018-09-24 17:38:16
Tagged date                              : UTC 2018-09-24 17:38:18
Fallback To                              : 2
tagc                                     : public.translation.voice-over
Audio #3
ID                                       : 4
Format                                   : AAC
Format/Info                              : Advanced Audio Codec
Format profile                           : LC
Codec ID                                 : mp4a-40-2
Duration                                 : 19 min 22 s
Bit rate mode                            : Variable
Bit rate                                 : 157 kb/s
Maximum bit rate                         : 267 kb/s
Channel(s)                               : 2 channels
Channel positions                        : Front: L R
Sampling rate                            : 48.0 kHz
Frame rate                               : 46.875 FPS (1024 SPF)
Compression mode                         : Lossy
Stream size                              : 21.7 MiB (3%)
Title                                    : Core Media Audio
Language                                 : English
Default                                  : No
Alternate group                          : 1
Encoded date                             : UTC 2018-09-24 17:38:16
Tagged date                              : UTC 2018-09-24 17:38:18
Fallback From                            : 6
Audio #4
ID                                       : 6
Format                                   : AC-3
Format/Info                              : Audio Coding 3
Format settings, Endianness              : Big
Codec ID                                 : ac-3
Duration                                 : 19 min 22 s
Bit rate mode                            : Constant
Bit rate                                 : 384 kb/s
Maximum bit rate                         : 406 kb/s
Channel(s)                               : 6 channels
Channel positions                        : Front: L C R, Side: L R, LFE
Sampling rate                            : 48.0 kHz
Frame rate                               : 31.250 FPS (1536 SPF)
Bit depth                                : 16 bits
Compression mode                         : Lossy
Stream size                              : 53.2 MiB (6%)
Title                                    : Core Media Audio
Language                                 : English
Service kind                             : Complete Main
Default                                  : No
Alternate group                          : 1
Encoded date                             : UTC 2018-09-24 17:38:16
Tagged date                              : UTC 2018-09-24 17:38:18
Fallback To                              : 4
Text #1
ID                                       : 5-CC1
Format                                   : EIA-608
Muxing mode                              : Final Cut
Codec ID                                 : c608
Duration                                 : 18 min 52 s
Bit rate mode                            : Constant
Stream size                              : 0.00 Byte (0%)
Title                                    : Core Media Closed Caption
Language                                 : English
Forced                                   : No
Encoded date                             : UTC 2018-09-24 17:38:16
Tagged date                              : UTC 2018-09-24 17:38:18
CaptionServiceName                       : CC1
Text #2
ID                                       : 7
Format                                   : Timed Text
Muxing mode                              : sbtl
Codec ID                                 : tx3g
Duration                                 : 18 min 51 s
Bit rate mode                            : Variable
Bit rate                                 : 95 b/s
Stream size                              : 13.2 KiB (0%)
Title                                    : Core Media Subtitle
Language                                 : English
Default                                  : No
Forced                                   : No
Alternate group                          : 2
Encoded date                             : UTC 2018-09-24 17:38:16
Tagged date                              : UTC 2018-09-24 17:38:18
tagc                                     : public.accessibility.transcribes-spoken-dialog

[/spoiler][/spoiler][/spoiler][/spoiler]
Не забывайте говорить Спасибо. Не уходите с раздачи!   
Торрент: Зарегистрирован [28 сен 2018, 17:53]
Статус:
Проверен
 
.torrent скачан: 1 раз
Хэш: 0264c3e525d3e77e2ce3fa0f5f644f1b59f1c3c3
Размер: 8.55 ГБ (9 182 399 812 байт)
   Стать Автором раздачи
   
Цитата
  • Похожие торренты
    Ответы
    Просмотры
    Последнее сообщение

Вернуться в Сериалы HD для Apple TV

Кто сейчас на конференции

Сейчас эту тему просматривают: нет зарегистрированных пользователей и гости: 1