Полицейский с Рублёвки. Мы тебя найдем (2018) WEB-DLRip (сезон 4, серии 1-8 из 8 + фильм о сериале)

 Статистика раздачи 
Размер: 4.52 ГБ   |  Зарегистрирован: 03 дек 2018, 13:01   |   .torrent скачан: 5 раз
Сидеров: 7  [ 0 байт/сек ]     Личеров: 1  [ 0 байт/сек ]  
  
Аватара пользователя
*
*
 
Раздал: 141.85 ГБ
Скачал: 6.15 ГБ
Ратио: 23.064
Сообщения: 234834
Стаж: 6 лет 9 месяцев 22 дня

Полицейский с Рублёвки. Мы тебя найдем (2018) WEB-DLRip

Производство: Россия / Legio Felix по заказу телеканала ТНТ
Жанр: комедия, криминал

Режиссер: Илья Куликов
Актеры: Александр Петров, Сергей Бурунов, София Каштанова, Александра Бортич, Татьяна Бабенкова, Роман Попов, Ростислав Гулбис, Сергей Штатнов, Светлана Суханова, Ирина Вилкова и др.

Описание:
Грише Измайлову и его начальнику Владимиру Яковлеву противостоит преступный гений, который решил сделать жизнь рублёвских обитателей невыносимой. Прежде спокойный и безопасный район теперь задыхается от беззакония, злодей посягнул даже на оплот правопорядка — отдел полиции «Барвиха». В борьбе с преступником полицейские решают применить своё тайное оружие: умения и таланты следователя Игоря Мухича.


Возраст: 16+ (зрителям, достигшим 16 лет)
Дата российской премьеры: 3 декабря 2018

Продолжительность: ~00:50:00 серия
Качество видео: WEB-DLRip

Видео: Xvid, 720x304, ~1265 Kbps
Аудио: AC3, 2 ch, 192 Kbps
Код: Выделить всё
Общее
Полное имя                               : G:\Politseyskiy.s.Rublevki.S04.2018\Politseyskiy.s.Rublevki.s04.e01.WEB-DLRip.avi
Формат                                   : AVI
Формат/Информация                        : Audio Video Interleave
Размер файла                             : 497 Мбайт
Продолжительность                        : 47 м. 18 с.
Общий поток                              : 1469 Кбит/сек

Видео
Идентификатор                            : 0
Формат                                   : MPEG-4 Visual
Профиль формата                          : Advanced Simple@L5
Настройки формата                        : BVOP2
Параметр BVOP формата                    : 2
Параметр QPel формата                    : Нет
Параметр GMC формата                     : Без точки перехода
Параметр матрицы формата                 : Default (MPEG)
Идентификатор кодека                     : XVID
Идентификатор кодека/Подсказка           : XviD
Продолжительность                        : 47 м. 18 с.
Битрейт                                  : 1266 Кбит/сек
Ширина                                   : 720 пикселей
Высота                                   : 304 пикселя
Соотношение сторон                       : 2,35:1
Частота кадров                           : 25,000 кадров/сек
Цветовое пространство                    : YUV
Субдискретизация насыщенности            : 4:2:0
Битовая глубина                          : 8 бит
Тип развёртки                            : Прогрессивная
Метод сжатия                             : С потерями
Бит/(Пиксели*Кадры)                      : 0.231
Размер потока                            : 428 Мбайт (86%)
Библиотека кодирования                   : XviD 73

Аудио
Идентификатор                            : 1
Формат                                   : AC-3
Формат/Информация                        : Audio Coding 3
Коммерческое название                    : Dolby Digital
Идентификатор кодека                     : 2000
Продолжительность                        : 47 м. 17 с.
Вид битрейта                             : Постоянный
Битрейт                                  : 192 Кбит/сек
Каналы                                   : 2 канала
Channel layout                           : L R
Частота                                  : 48,0 КГц
Частота кадров                           : 31,250 кадров/сек (1536 SPF)
Битовая глубина                          : 16 бит
Метод сжатия                             : С потерями
Размер потока                            : 65,0 Мбайт (13%)
Выравнивание                             : Соединение по промежуткам
Продолжительность промежутка             : 32  мс. (0,80 видеокадр)
ServiceKind/String                       : Complete Main

Скриншоты:




Время раздачи: 24/7 (круглосуточно) (до появления первых 3-5 скачавших)
Не забывайте говорить Спасибо. Не уходите с раздачи!   
Торрент: Зарегистрирован [03 дек 2018, 13:01]
Статус:
Проверен
 
.torrent скачан: 5 раз
Хэш: 72cb50f01d8a140cf7a7d48889e7aacc3058f914
Размер: 4.52 ГБ (4 853 185 812 байт)
   Стать Автором раздачи
   
Цитата

Вернуться в Полицейский с Рублёвки

Кто сейчас на конференции

Сейчас эту тему просматривают: нет зарегистрированных пользователей и гости: 1