Происхождение / Origin [S01] (2018) WEBRip 720p | OMSKBIRD

 Статистика раздачи 
Размер: 11.32 ГБ   |  Зарегистрирован: 18 ноя 2018, 23:22   |   .torrent скачан: 626 раз
Сидеров: 102  [ 0 байт/сек ]     Личеров: 20  [ 0 байт/сек ]  
  
Аватара пользователя
Я на сайте
 
Раздал: 256.39 ГБ
Скачал: 432.89 ГБ
Ратио: 0.672
Сообщения: 193024
Стаж: 8 лет 1 месяц 6 дней

Информация о фильме
Название: Исток / Происхождение
Оригинальное название: Origin
Год выхода: 2018
Жанр: фантастика
Режиссер: Пол У. С. Андерсон, Марк Брозел, Хуан Карлос Медина
В ролях: Наталия Тена, Филипп Кристофер, Шиван Каллен, Эделайо Эдедайо, Том Фелтон, Нора Арнезедер, Белен Фабра, Мэдалин Хорчер, Фрайзер Джеймс, Йоуханнес Хёйкьюр Йоуханнессон и др.
О фильме:
Группа незнакомцев находится на борту космического корабля, взявшего курс на далёкую планету. Будучи брошенными, пассажиры должны объединиться, чтобы выжить, но вскоре понимают, что среди них есть один человек, который совсем не тот, кем хочет казаться.




Страна: Великобритания
Продолжительность: ~ 00:50:00 серия
Перевод: Любительский (многоголосый закадровый) | OMSKBIRD

Файл
Кодек: MPEG-4 AVC
Качество: WEBRip 720p
Видео: AVC, 1280x720 (16:9), 23.976 fps, ~ 3000 kbps
Звук: Аудио rus: AC-3, 48 KHz, 2 ch, 192 kbps | OMSKBIRD records

Семпл

Присутствует реклама!
Внимание! Присутствует нецензурная лексика!

General
Unique ID : 200072747367314052256876105708376435171 (0x96849C09925DFE29B20DD9F96BF829E3)
Complete name : H:Мои ДокументыВидеоРАЗДАЧИОРИДЖИНOrigin S01 WEBRip 720p (OMSKBIRD)Origin S01E01 WEBRip 720p (OMSKBIRD).mkv
Format : Matroska
Format version : Version 2
File size : 1.07 GiB
Duration : 48 min 19 s
Overall bit rate : 3 163 kb/s
Encoded date : UTC 2018-11-15 18:31:12
Writing application : mkvmerge v4.0.0 ('The Stars were mine') сборка от Jun 6 2010 16:18:42
Writing library : libebml v1.0.0 + libmatroska v1.0.0

Video
ID : 1
Format : AVC
Format/Info : Advanced Video Codec
Format profile : Main@L4.1
Format settings, CABAC : Yes
Format settings, RefFrames : 3 frames
Codec ID : V_MPEG4/ISO/AVC
Duration : 48 min 19 s
Bit rate : 2 908 kb/s
Width : 1 280 pixels
Height : 720 pixels
Display aspect ratio : 16:9
Frame rate mode : Constant
Frame rate : 23.976 (24000/1001) FPS
Standard : NTSC
Color space : YUV
Chroma subsampling : 4:2:0
Bit depth : 8 bits
Scan type : Progressive
Bits/(Pixel*Frame) : 0.132
Stream size : 1 005 MiB (92%)
Language : English
Default : Yes
Forced : No
Color range : Limited
Color primaries : BT.709
Transfer characteristics : BT.709
Matrix coefficients : BT.709

Audio
ID : 2
Format : AC-3
Format/Info : Audio Coding 3
Format settings, Endianness : Big
Codec ID : A_AC3
Duration : 48 min 19 s
Bit rate mode : Constant
Bit rate : 192 kb/s
Channel(s) : 2 channels
Channel positions : Front: L R
Sampling rate : 48.0 kHz
Frame rate : 31.250 FPS (1536 SPF)
Bit depth : 16 bits
Compression mode : Lossy
Stream size : 66.4 MiB (6%)
Service kind : Complete Main
Default : Yes
Forced : No
Не забывайте говорить Спасибо. Не уходите с раздачи!   
Торрент: Зарегистрирован [18 ноя 2018, 23:22]
Статус:
Проверен
 
.torrent скачан: 626 раз
Хэш: 119d65a3d03d338aaa4750d4b15739865f3300a2
Размер: 11.32 ГБ (12 159 513 362 байт)
   Стать Автором раздачи
   
Цитата
  • Похожие торренты
    Ответы
    Просмотры
    Последнее сообщение

Вернуться в Происхождение / Origin

Кто сейчас на конференции

Сейчас эту тему просматривают: нет зарегистрированных пользователей и гости: 1