Происхождение / Origin [S01] (2018) WEBRip | OMSKBIRD

 Статистика раздачи 
Размер: 7.08 ГБ   |  Зарегистрирован: 18 ноя 2018, 23:21   |   .torrent скачан: 5737 раз
Сидеров: 132  [ 0 байт/сек ]     Личеров: 54  [ 0 байт/сек ]  
  
Аватара пользователя
Я на сайте
 
Раздал: 256.39 ГБ
Скачал: 432.89 ГБ
Ратио: 0.672
Сообщения: 194217
Стаж: 8 лет 3 месяца 5 дней

Информация о фильме
Название: Исток / Происхождение
Оригинальное название: Origin
Год выхода: 2018
Жанр: фантастика
Режиссер: Пол У. С. Андерсон, Марк Брозел, Хуан Карлос Медина
В ролях: Наталия Тена, Филипп Кристофер, Шиван Каллен, Эделайо Эдедайо, Том Фелтон, Нора Арнезедер, Белен Фабра, Мэдалин Хорчер, Фрайзер Джеймс, Йоуханнес Хёйкьюр Йоуханнессон и др.
О фильме:
Группа незнакомцев находится на борту космического корабля, взявшего курс на далёкую планету. Будучи брошенными, пассажиры должны объединиться, чтобы выжить, но вскоре понимают, что среди них есть один человек, который совсем не тот, кем хочет казаться.




Страна: Великобритания
Продолжительность: ~ 00:50:00 серия
Перевод: Любительский (многоголосый закадровый) | OMSKBIRD

Файл
Кодек: Xvid
Качество: WEBRip
Видео: AVI, 720x400 (16:9), 23.976 fps, ~ 1800 kbps
Звук: Аудио rus: AC-3, 48 KHz, 2 ch, 192 kbps | OMSKBIRD records

Семпл

Присутствует реклама!
Внимание! Присутствует нецензурная лексика!

General
Complete name : H:Мои ДокументыВидеоРАЗДАЧИОРИДЖИНOrigin S01 WEBRip (OMSKBIRD)Origin S01E01 WEBRip (OMSKBIRD).avi
Format : AVI
Format/Info : Audio Video Interleave
File size : 688 MiB
Duration : 48 min 19 s
Overall bit rate : 1 992 kb/s
Writing application : VirtualDubMod 1.5.10.3 | www.virtualdub-fr.org || (build 2550/release)
Writing library : VirtualDubMod build 2550/release

Video
ID : 0
Format : MPEG-4 Visual
Format profile : Advanced Simple@L5
Format settings, BVOP : 1
Format settings, QPel : No
Format settings, GMC : No warppoints
Format settings, Matrix : Default (H.263)
Codec ID : XVID
Codec ID/Hint : XviD
Duration : 48 min 19 s
Bit rate : 1 790 kb/s
Width : 720 pixels
Height : 400 pixels
Display aspect ratio : 16:9
Frame rate : 23.976 (24000/1001) FPS
Color space : YUV
Chroma subsampling : 4:2:0
Bit depth : 8 bits
Scan type : Progressive
Compression mode : Lossy
Bits/(Pixel*Frame) : 0.259
Stream size : 619 MiB (90%)
Writing library : XviD 67

Audio
ID : 1
Format : AC-3
Format/Info : Audio Coding 3
Format settings, Endianness : Big
Codec ID : 2000
Duration : 48 min 19 s
Bit rate mode : Constant
Bit rate : 192 kb/s
Channel(s) : 2 channels
Channel positions : Front: L R
Sampling rate : 48.0 kHz
Frame rate : 31.250 FPS (1536 SPF)
Bit depth : 16 bits
Compression mode : Lossy
Stream size : 66.4 MiB (10%)
Alignment : Split accross interleaves
Interleave, duration : 42 ms (1.00 video frame)
Interleave, preload duratio : 500 ms
Service kind : Complete Main
Не забывайте говорить Спасибо. Не уходите с раздачи!   
Торрент: Зарегистрирован [18 ноя 2018, 23:21]
Статус:
Проверен
 
.torrent скачан: 5737 раз
Хэш: 12a87e3015bb67504767f12893aa071f1ef40b2f
Размер: 7.08 ГБ (7 599 958 016 байт)
   Стать Автором раздачи
   
Цитата
  • Похожие торренты
    Ответы
    Просмотры
    Последнее сообщение

Вернуться в Происхождение / Origin

Кто сейчас на конференции

Сейчас эту тему просматривают: нет зарегистрированных пользователей и гости: 1